Аліта: Бойовий ангел / Alita: Battle Angel (2019) UHD 4K 2160p HDR x265 Ukr/Eng | Sub Eng

Нові коментарі

Нова тема   Відповісти
Автор Повідомлення
Babamin 
Свій


З нами з: 29.12.15
Востаннє: 12.12.19
Повідомлень: 67

2019-07-09 21:17  
Аліта: Бойовий ангел / Alita: Battle Angel (2019) UHD 4K 2160p HDR x265 Ukr/Eng | Sub Eng

Аліта: Бойовий ангел / Alita: Battle Angel (2019) UHD 4K 2160p HDR x265 Ukr/Eng | Sub Eng
«Ангел впаде, і підніметься воїн»



Жанр: бойовик, мелодрама, трилер, фантастика
Країна: Канада, Аргентина, США



Кінокомпанія: Twentieth Century Fox, Lightstorm Entertainment, Troublemaker Studios
Режисер: Роберт Родрігес
Актори: Роза Салазар, Крістоф Вальц, Дженніфер Коннеллі, Магершала Алі, Кіан Джонсон, Ед Скрейн, Джекі Ерл Гейлі, Мішель Родріґес, Ейса Ґонсалес, Каспер Ван Дін та інші

Сюжет:
Через сотні років Земля проживе безліч подій. Люди створять кіборгів, будуть між собою воювати. Доктор Ідо випадково знайшов останки дівчини-кіборга. Свою знахідку чоловік вирішив забрати із собою, щоб полагодити та привести до ладу. Як виявилося, її звуть Аліта. Коли вона прийшла до тями, то зрозуміла, що нічого не пам'ятає. Тепер все навколо для Аліти абсолютно нове, їй до всього треба звикати. Кіборг хоче за всяку ціну відновити ті спогади, яких не вистачає, від чого її намагається захистити доктор Ідо. Він добре знає, що минуле краще не чіпати. Аліта зустрічає нових друзів і вже з їх допомогою намагається знайти істину. Кіборг – остання зі свого роду, і за нею буде велике полювання. В Аліти ж залишилися одні спогади – це прийоми бойових мистецтв. Вона одна буде боротися проти цілого світу, і вона його має змінити.


Тривалість: 02:01:58
Якість: UltraHD 4K 2160p
Контейнер:

Відео:
кодек: H.265
розмір кадру: 3840 х 1608
бітрейт: 16,4 Мб/с
бітова глибина: 10 біт
кольоровий простір: BT.2020 (HDR)

Аудіо # 1:
мова: українська
переклад: професійний дубльований (Blu-ray)
кодек: 5.1
бітрейт: 448 кб/с

Аудіо # 2:
мова: англійська
переклад: оригінал
кодек: 5.1
бітрейт: 640 кб/с

Аудіо # 3:
мова: англійська
переклад: оригінал
кодек: 5.1
бітрейт: 1509 кб/с

Субтитри # 1 (повні):
мова: українська (Blu-ray)
тип: програмні (м'які)
формат: *.srt

Субтитри #2-3
мова: англійська (full, SDH)
тип: програмні (м'які)
формат: *.srt
Log + Info:
x265 [info]: frame I: 1769, Avg QP:15.68 kb/s: 39711.78
x265 [info]: frame P: 34410, Avg QP:17.30 kb/s: 28346.36
x265 [info]: frame B: 139261, Avg QP:20.13 kb/s: 13204.41
x265 [info]: consecutive B-frames: 14.5% 7.7% 7.4% 17.7% 7.2% 23.0% 7.3% 6.3% 3.8% 3.3% 1.7%
encoded 175440 frames, 16441.56 kb/s, Avg QP:19.53

General
Complete name : Alita.Battle.Angel.2019.UHD-.4K.2160p.HDR.x265-Hurtom.
Format :
Format version : Version 4
File size : 16.2 GiB
Duration : 2 h 1 min
Overall bit rate : 19.0 Mb/s
Movie name : Alita: Battle Angel (2019) UHD- 4K 2160p HDR x265 -Hurtom
Encoded date : UTC 2019-07-17 12:48:07
Writing application : v35.0.0 ('All The Love In The World') 64-bit
Writing library : libebml v1.3.9 + v1.5.2
Attachments : log.txt

Video
ID : 1
Format : HEVC
Format/Info : High Efficiency Video Coding
Format profile : Main [email protected]@High
HDR format : SMPTE ST 2086, HDR10 compatible
Codec ID : V_MPEGH/ISO/HEVC
Duration : 2 h 1 min
Bit rate : 16.4 Mb/s
Width : 3 840 pixels
Height : 1 608 pixels
Display aspect ratio : 2.40:1
Frame rate mode : Constant
Frame rate : 23.976 (24000/1001) FPS
Color space : YUV
Chroma subsampling : 4:2:0 (Type 2)
Bit depth : 10 bits
Bits/(Pixel*Frame) : 0.111
Stream size : 14.0 GiB (86%)
Title : Alita.Battle.Angel.2019.UHD-.4K.2160p.HDR.x265-Hurtom
Writing library : x265 3.1+7-147fb92c5ed5:[Windows][GCC 9.1.1][64 bit] 10bit
Encoding settings : cpuid=1111039 / frame-threads=5 / numa-pools=16,16,16,16 / wpp / no-pmode / pme / no-psnr / no-ssim / log-level=2 / input-csp=1 / input-res=3840x1608 / interlace=0 / total-frames=175440 / level-idc=51 / high-tier=1 / uhd-bd=0 / ref=4 / no-allow-non-conformance / repeat-headers / annexb / aud / no-hrd / info / hash=0 / no-temporal-layers / no-open-gop / min-keyint=23 / keyint=250 / gop-lookahead=0 / bframes=10 / b-adapt=2 / b-pyramid / bframe-bias=0 / rc-lookahead=72 / lookahead-slices=4 / scenecut=40 / radl=0 / no-splice / no-intra-refresh / ctu=64 / min-cu-size=8 / rect / no-amp / max-tu-size=32 / tu-inter-depth=1 / tu-intra-depth=1 / limit-tu=0 / rdoq-level=2 / dynamic-rd=1.00 / no-ssim-rd / signhide / no-tskip / nr-intra=0 / nr-inter=0 / no-constrained-intra / no-strong-intra-smoothing / max-merge=3 / limit-refs=3 / limit-modes / me=3 / subme=7 / merange=57 / temporal-mvp / no-hme / weightp / no-weightb / no-analyze-src-pics / deblock=-3:-3 / no-sao / no-sao-non-deblock / rd=4 / no-early-skip / no-rskip / no-fast-intra / no-tskip-fast / no-cu-lossless / no-b-intra / no-splitrd-skip / rdpenalty=2 / psy-rd=2.00 / psy-rdoq=1.00 / no-rd-refine / no-lossless / cbqpoffs=0 / crqpoffs=0 / rc=crf / crf=16.4 / qcomp=0.60 / qpstep=4 / stats-write=0 / stats-read=0 / vbv-maxrate=160000 / vbv-bufsize=160000 / vbv-init=0.9 / crf-max=0.0 / crf-min=0.0 / ipratio=1.30 / pbratio=1.20 / aq-mode=3 / aq-strength=1.00 / cutree / zone-count=0 / no-strict-cbr / qg-size=32 / no-rc-grain / qpmax=69 / qpmin=0 / no-const-vbv / sar=1 / overscan=0 / videoformat=5 / range=0 / colorprim=9 / transfer=16 / colormatrix=9 / chromaloc=1 / chromaloc-top=2 / chromaloc-bottom=2 / display-window=0 / master-display=G(13250,34500)B(7500,3000)R(34000,16000)WP(15635,16450)L(10000000,1)cll=233,63 / min-luma=0 / max-luma=1023 / log2-max-poc-lsb=8 / vui-timing-info / vui-hrd-info / slices=1 / no-opt-qp-pps / no-opt-ref-list-length-pps / no-multi-pass-opt-rps / scenecut-bias=0.05 / no-opt-cu-delta-qp / no-aq-motion / hdr / hdr-opt / no-dhdr10-opt / no-idr-recovery-sei / analysis-reuse-level=5 / scale-factor=0 / refine-intra=0 / refine-inter=0 / refine-mv=0 / refine-ctu-distortion=0 / no-limit-sao / ctu-info=0 / no-lowpass-dct / refine-analysis-type=0 / copy-pic=1 / max-ausize-factor=1.0 / no-dynamic-refine / no-single-sei / no-hevc-aq / no-svt / no-field / qp-adaptation-range=1.00
Language : English
Default : Yes
Forced : No
Color range : Limited
Color primaries : BT.2020
Transfer characteristics : PQ
Matrix coefficients : BT.2020 non-constant
Mastering display color primaries : Display P3
Mastering display luminance : min: 0.0001 cd/m2, max: 1000 cd/m2
Maximum Content Light Level : 233 cd/m2
Maximum Frame-Average Light Level : 63 cd/m2

Audio #1
ID : 2
Format : AC-3
Format/Info : Audio Coding 3
Commercial name : Dolby Digital
Codec ID : A_AC3
Duration : 2 h 1 min
Bit rate mode : Constant
Bit rate : 448 kb/s
Channel(s) : 6 channels
Channel layout : L R C LFE Ls Rs
Sampling rate : 48.0 kHz
Frame rate : 31.250 FPS (1536 SPF)
Bit depth : 16 bits
Compression mode : Lossy
Stream size : 391 MiB (2%)
Title : Dub (BD CEE)
Language : Ukrainian
Service kind : Complete Main
Default : Yes
Forced : No

Audio #2
ID : 3
Format : AC-3
Format/Info : Audio Coding 3
Commercial name : Dolby Digital
Codec ID : A_AC3
Duration : 2 h 1 min
Bit rate mode : Constant
Bit rate : 640 kb/s
Channel(s) : 6 channels
Channel layout : L R C LFE Ls Rs
Sampling rate : 48.0 kHz
Frame rate : 31.250 FPS (1536 SPF)
Bit depth : 16 bits
Compression mode : Lossy
Stream size : 558 MiB (3%)
Title : Core (UHD BD)
Language : English
Service kind : Complete Main
Default : No
Forced : No

Audio #3
ID : 4
Format : ES
Format/Info : Digital Theater Systems
Commercial name : -ES Matrix
Codec ID : A_DTS
Duration : 2 h 1 min
Bit rate mode : Constant
Bit rate : 1 509 kb/s
Channel(s) : 6 channels
Channel(s)_Original : 7 channels
Channel layout : C L R Ls Rs Cb LFE
Sampling rate : 48.0 kHz
Frame rate : 93.750 FPS (512 SPF)
Bit depth : 24 bits
Compression mode : Lossy
Stream size : 1.29 GiB (8%)
Title : -ES Core (BD CEE)
Language : English
Default : No
Forced : No

Text #1
ID : 5
Format : UTF-8
Codec ID : S_TEXT/UTF8
Codec ID/Info : UTF-8 Plain Text
Duration : 2 h 1 min
Bit rate : 48 b/s
Count of elements : 1254
Stream size : 43.3 KiB (0%)
Title : full
Language : Ukrainian
Default : Yes
Forced : No

Text #2
ID : 6
Format : UTF-8
Codec ID : S_TEXT/UTF8
Codec ID/Info : UTF-8 Plain Text
Duration : 1 h 55 min
Bit rate : 41 b/s
Count of elements : 1347
Stream size : 34.9 KiB (0%)
Title : full
Language : English
Default : No
Forced : No

Text #3
ID : 7
Format : UTF-8
Codec ID : S_TEXT/UTF8
Codec ID/Info : UTF-8 Plain Text
Duration : 1 h 56 min
Bit rate : 46 b/s
Count of elements : 1590
Stream size : 39.5 KiB (0%)
Title : SDH
Language : English
Default : No
Forced : No

Menu
00:00:00.000 : en:00:00:00.000
00:03:28.625 : en:00:03:28.625
00:07:51.680 : en:00:07:51.680
00:10:07.982 : en:00:10:07.982
00:13:06.703 : en:00:13:06.703
00:15:06.739 : en:00:15:06.739
00:18:04.542 : en:00:18:04.542
00:22:58.711 : en:00:22:58.711
00:25:35.325 : en:00:25:35.325
00:31:40.899 : en:00:31:40.899
00:33:29.216 : en:00:33:29.216
00:36:32.816 : en:00:36:32.816
00:38:30.892 : en:00:38:30.892
00:42:05.481 : en:00:42:05.481
00:45:58.214 : en:00:45:58.214
00:48:31.450 : en:00:48:31.450
00:52:57.007 : en:00:52:57.007
00:55:14.353 : en:00:55:14.353
01:00:39.761 : en:01:00:39.761
01:02:56.564 : en:01:02:56.564
01:05:16.788 : en:01:05:16.788
01:10:50.496 : en:01:10:50.496
01:13:37.288 : en:01:13:37.288
01:16:35.216 : en:01:16:35.216
01:18:52.227 : en:01:18:52.227
01:22:48.297 : en:01:22:48.297
01:24:55.340 : en:01:24:55.340
01:28:25.217 : en:01:28:25.217
01:33:18.551 : en:01:33:18.551
01:36:08.763 : en:01:36:08.763
01:41:54.692 : en:01:41:54.692
01:45:23.442 : en:01:45:23.442
01:48:16.490 : en:01:48:16.490
01:51:43.655 : en:01:51:43.655
01:54:43.668 : en:01:54:43.668
01:56:51.504 : en:01:56:51.504
Скріншоти:
Джерело: & Babamin


 Трекер:    Зареєстрований   

Завантажити / скачати фільм українською



відео для новачків



 Зареєстрований:   2019-07-17 17:43
 Розмір:   16.22 GB 
 Оцінка фільму:   8.9/10 (Голосів: 13)
   
Інші релізи
   Аліта: Бойовий ангел / Alita: Battle Angel (2019) 1080p H.265 Ukr/Eng | Sub Ukr/Eng -Star-Lord-  21 / 0   8.86 GB   2019-07-17 18:20 
   Аліта: Бойовий ангел / Alita: Battle Angel (2019) 1080p 3D [Half SideBySide] Ukr/Eng | Sub Ukr/Eng дядя1111  7 / 0   13.17 GB   2019-07-16 10:29 
   Аліта: Бойовий ангел / Alita: Battle Angel (2019) Ukr/Eng antik_2008  39 / 0   2.48 GB   2019-07-15 12:33 
   Аліта: Бойовий ангел / Alita: Battle Angel (2019) [Open Matte] Ukr/Eng antik_2008  15 / 0   2.47 GB   2019-07-15 12:05 
   Аліта: Бойовий ангел / Alita: Battle Angel (2019) 1080p Ukr/Eng | Sub Ukr/Eng staf777  59 / 0   7.38 GB   2019-07-14 21:44 
   Аліта: Бойовий ангел / Alita: Battle Angel (2019) [Open Matte] AVC Ukr/Eng | Sub Ukr/Eng 11FrYkT  11 / 0   3.67 GB   2019-07-14 20:15 
   Аліта: Бойовий ангел / Alita: Battle Angel (2019) Remux 1080p Ukr/Eng | Sub Ukr/Eng staf777  21 / 0   24.6 GB   2019-07-14 20:06 
   Аліта: Бойовий ангел / Alita: Battle Angel (2019) 1080p [Open Matte] Ukr/Eng | Sub Ukr/Eng igor911  13 / 0   7.46 GB   2019-07-14 15:53 
   Аліта: Бойовий ангел / Alita: Battle Angel (2019) UHD Remux 4K 2160p HDR H.265 Ukr/Eng | Sub Ukr/Eng Babamin  19 / 0   40.52 GB   2019-07-14 14:10 
   Аліта: Бойовий ангел / Alita: Battle Angel (2019) AVC Ukr/Eng | Sub Ukr/Eng 11FrYkT  62 / 0   2.4 GB   2019-07-14 13:17 
   Аліта: Бойовий ангел / Alita: Battle Angel (2019) 720p Ukr/Eng | Sub Ukr/Eng 11FrYkT  49 / 0   5.41 GB   2019-07-14 12:45 
   Аліта: Бойовий ангел / Alita: Battle Angel (2019) igor911  32 / 0   1.45 GB   2019-07-14 12:17 
bogdanhud 
Новенький


З нами з: 04.06.17
Востаннє: 12.12.19
Повідомлень: 1

2019-07-09 23:36  
А DD 5.1 Українською буде.
PuMa.ua 
VIP


З нами з: 29.08.08
Востаннє: 12.12.19
Повідомлень: 338

2019-07-09 23:53  
bogdanhud
в айтюнсі анонсовано.

YurOK_88 
Новенький


З нами з: 26.09.18
Востаннє: 12.12.19
Повідомлень: 10

2019-07-11 01:10  
Фільм просто бомба! Я давно не отримував стільки вражень, мені дуже сподобалось і Аліта справжня пушка) Словом рекомендую! І велике дякую за такий чудовий реліз!!
kocyxuh 
Новенький


З нами з: 05.12.16
Востаннє: 08.12.19
Повідомлень: 14

2019-07-11 10:34  
Краща адаптація манги ніж Аніме. Нажаль наврядчи продовження буде Sad (1)
Дякую за реліз!

mult_77 
Новенький


З нами з: 20.04.16
Востаннє: 07.12.19
Повідомлень: 6

2019-07-11 20:47  
-- що це означеє ..все ще "екранка" ?? ..бо дивлюсь на скріни, здоровенні-так, але мило якесь ((
а хочеться Іраз дивитись в "жирі" (в "сініму" не ходив,нажаль)

igor911 
Модератор відео


З нами з: 18.01.08
Востаннє: 12.12.19
Повідомлень: 13728

2019-07-11 20:51  
mult_77 написано:
-- що це означеє ..все ще "екранка" ?

це ліцензія, яку продають на VOD-платформах типу Амазона, Тюнса.

Додано через 1 хвилину 21 секунду:

але це 4K оптимізоване для передачі по обмеженим інтернет-каналам

mult_77 
Новенький


З нами з: 20.04.16
Востаннє: 07.12.19
Повідомлень: 6

2019-07-11 21:56  
Ага. прояснив собі. Дяк! ..заодно і шо таке VOD .. )) бо я "в танку")
ні, таке качать/дивитись не хо. Все ж треба терпіть до блюрея для "РС-кіноманів".
Знаю що такий фільм мене порве, тому треба чекать. Правильно ж?

igor911 
Модератор відео


З нами з: 18.01.08
Востаннє: 12.12.19
Повідомлень: 13728

2019-07-11 22:36  
mult_77 написано:
шо таке VOD

https://uk.wikipedia.org/wiki/Video_on_Demand
Цитата:
Правильно ж?

кожен приймає рішення сам

tatopylys 
Свій


З нами з: 12.05.16
Востаннє: 11.12.19
Повідомлень: 55

2019-07-12 12:20  
друзі я придбав його на мегого. якось то можливо сюди викласти? хто знає?
vidokone 
Новенький


З нами з: 01.07.17
Востаннє: 12.12.19
Повідомлень: 20

2019-07-12 23:40  
Дочекаюсь вже якіснішого ріпа... І в 5й раз передивлюсь із задоволенням)
armoteo7777 
Новенький


З нами з: 28.01.19
Востаннє: 30.11.19
Повідомлень: 1

2019-07-13 07:44  
У всіх буває, що розпливається в пікселях?
povudlo 
Новенький


З нами з: 17.09.14
Востаннє: 12.12.19
Повідомлень: 20

2019-07-13 09:05  
armoteo7777
В динамічних сценах?

Babamin 
Свій


З нами з: 29.12.15
Востаннє: 12.12.19
Повідомлень: 67

2019-07-13 09:19  
armoteo7777 написано:
У всіх буває, що розпливається в пікселях?

Двічі дивилися з дітьми, не бачили пікселів (TV LG 49", вбудований плеєр). Якість картинки захоплення середня. Буде викладений диск, зроблю рип.

Remux 2160p витягую вже Happy

trewa10 
Новенький


З нами з: 25.12.15
Востаннє: 08.12.19
Повідомлень: 1

2019-07-13 11:41  
Babamin написано:
Remux 2160p витягую вже


Сьогодні залиєте?

igor911 
Модератор відео


З нами з: 18.01.08
Востаннє: 12.12.19
Повідомлень: 13728

2019-07-13 11:45  
Цитата:
Remux 2160p витягую вже
Сьогодні залиєте?

бажано одразу з укр.звуком 5.1 з блурея заливати, щоб не перезавантажувати через день

Babamin 
Свій


З нами з: 29.12.15
Востаннє: 12.12.19
Повідомлень: 67

2019-07-13 12:20  
Не знаю чи вийде забрати ремукс, роздача з трекера видалена за низьку швидкість віддачі. Але аплоадер поки роздає і якщо не відключиться, то исходник отримаю. Швидкість віддачі у нього маленька, чекаю. За 2,5 години він віддав тільки 34,2%. Може віддасть все 100.
А може хто ще залє і буде віддавати з високою швидкістю.

Додано через 4 хвилини 23 секунди:

igor911
Цитата:
бажано одразу з укр.звуком 5.1 з блурея заливати, щоб не перезавантажувати через день

з укр.звуком 5.1 з блурея допоможете?

igor911 
Модератор відео


З нами з: 18.01.08
Востаннє: 12.12.19
Повідомлень: 13728

2019-07-13 13:47  
Babamin, ні, але думаю що з дня на день він з'явиться.

Додано через 22 хвилини 41 секунду:

Babamin написано:
Не знаю чи вийде забрати ремукс, роздача з трекера видалена за низьку швидкість віддачі

якщо мова йде про Alita Battle Angel.2019.2160p..Remux.HEVC.-HD.MA.7.1-FGT 89 Гб, то його можна довантажити

Babamin 
Свій


З нами з: 29.12.15
Востаннє: 12.12.19
Повідомлень: 67

2019-07-13 17:14  
igor911
Alita.Battle.Angel.2019.UHD.BluRay.2160p.TrueHD.Atmos.7.1.HEVC.REMUX-RamZaY8OLTON 40.2 Gb
вже 53,7%

igor911 
Модератор відео


З нами з: 18.01.08
Востаннє: 12.12.19
Повідомлень: 13728

2019-07-14 08:28  
Babamin написано:
з укр.звуком 5.1 з блурея допоможете?

є на руторі

Babamin 
Свій


З нами з: 29.12.15
Востаннє: 12.12.19
Повідомлень: 67

2019-07-14 13:02  
igor911
Вже муксится. Буде доки ремукс. Ріп через пару днів.

Додано через 15 хвилин 54 секунди:

З ремуксом зроблю нову тему, а коли буде готовий ріп, відновлю цю тему

romango1976 
Новенький


З нами з: 20.01.16
Востаннє: 08.12.19
Повідомлень: 4

2019-07-15 16:07  
Потрібен був кодек H.265. Знайшов і завантажив без реєстрації звідси :
[Посилання видалене, п.2.10]

Babamin 
Свій


З нами з: 29.12.15
Востаннє: 12.12.19
Повідомлень: 67

2019-07-17 15:49  
17.07.2019 Роздачу оновлено
Замінив 2160p на UHD 2160p

Ваш часовий пояс: GMT + 2 Години

Нова тема   Відповісти