Формула 1. Сезон 2019. Етап 9. Гран-Прі Австрії. Гонка (30.06.2019) 720p 2xUkr/Eng/Int

Нові коментарі

Нова тема   Відповісти
Автор Повідомлення
sergiyko.5 
VIP


З нами з: 25.02.16
Востаннє: 08.12.19
Повідомлень: 2811

2019-07-09 09:36  
Формула 1. Сезон 2019. Етап 9. Гран-Прі Австрії. Гонка (30.06.2019) 720p 2xUkr/Eng/Int

Формула 1. Сезон 2019. Етап 9. Гран-Прі Австрії. Гонка (30.06.2019) 720p 2xUkr/Eng/Int

Жанр: Перегони Формули 1
Країна: Австрія
Телеканал: F1 TV
Коментар: Роман Гончаров (1), Максим Подзігун (2), SkySports F1 (3)

Опис:
Гонка девятого етапу Гран-Прі Австрії 2019 року.


Якість:

Відео:кодек: розмір кадру: 1280 х 720 бітрейт: 7500 кб/с
Аудіо 1: мова: українська кодек: 2.0 бітрейт: 192 кб/с
Аудіо 2: мова: українська кодек: 2.0 бітрейт: 192 кб/с
Аудіо 3: мова: англійська кодек: 5.1 бітрейт: 384 кб/с
Аудіо 4: мова: - кодек: 5.1 бітрейт: 448 кб/с
Тривалість:
02:04:11
Про файл:
General
Unique ID : 134044146304211632006516646601189555315 (0x64D7F6A97D697041A0E08FEBECA8FC73)
Complete name : F:\Torrents2\SPORT\Formula 1\F1.2019.Race\F1.2019.09.Austria.Race..720p.50fps.2xUkr.Eng.
Format :
Format version : Version 4
File size : 7.58 GiB
Duration : 2 h 4 min
Overall bit rate : 8 738 kb/s
Encoded date : UTC 2019-07-09 07:15:09
Writing application : v35.0.0 ('All The Love In The World') 64-bit
Writing library : libebml v1.3.9 + v1.5.2

Video
ID : 1
Format : AVC
Format/Info : Advanced Video Codec
Format profile : [email protected]
Format settings : CABAC / 4 Ref Frames
Format settings, CABAC : Yes
Format settings, Reference : 4 frames
Codec ID : V_MPEG4/ISO/AVC
Duration : 2 h 4 min
Bit rate : 7 518 kb/s
Width : 1 280 pixels
Height : 720 pixels
Display aspect ratio : 16:9
Frame rate mode : Constant
Frame rate : 50.000 FPS
Color space : YUV
Chroma subsampling : 4:2:0
Bit depth : 8 bits
Scan type : Progressive
Bits/(Pixel*Frame) : 0.163
Stream size : 6.52 GiB (86%)
Title : F1 2019 09 Austria Race
Writing library : core 148 r2705 3f5ed56
Encoding settings : cabac=1 / ref=3 / deblock=1:0:0 / analyse=0x3:0x113 / me=umh / subme=9 / psy=1 / psy_rd=1.00:0.00 / mixed_ref=1 / me_range=32 / chroma_me=1 / trellis=1 / 8x8dct=1 / cqm=0 / deadzone=21,11 / fast_pskip=1 / chroma_qp_offset=-2 / threads=18 / lookahead_threads=1 / sliced_threads=0 / nr=0 / decimate=1 / interlaced=0 / bluray_compat=0 / constrained_intra=0 / bframes=12 / b_pyramid=2 / b_adapt=1 / b_bias=0 / direct=1 / weightb=1 / open_gop=0 / weightp=2 / keyint=100 / keyint_min=10 / scenecut=40 / intra_refresh=0 / rc_lookahead=40 / rc=crf / mbtree=1 / crf=20.0 / qcomp=0.60 / qpmin=0 / qpmax=69 / qpstep=4 / vbv_maxrate=20000 / vbv_bufsize=25000 / crf_max=0.0 / nal_hrd=none / filler=0 / ip_ratio=1.40 / aq=1:1.00
Language : English
Default : Yes
Forced : No
Color range : Limited
Color primaries : BT.709
Transfer characteristics : BT.709
Matrix coefficients : BT.709

Audio #1
ID : 2
Format : AC-3
Format/Info : Audio Coding 3
Commercial name : Dolby Digital
Codec ID : A_AC3
Duration : 2 h 4 min
Bit rate mode : Constant
Bit rate : 192 kb/s
Channel(s) : 2 channels
Channel layout : L R
Sampling rate : 48.0 kHz
Frame rate : 31.250 FPS (1536 SPF)
Bit depth : 16 bits
Compression mode : Lossy
Stream size : 171 MiB (2%)
Title : Роман Гончаров
Language : Ukrainian
Service kind : Complete Main
Default : Yes
Forced : Yes

Audio #2
ID : 3
Format : AC-3
Format/Info : Audio Coding 3
Commercial name : Dolby Digital
Codec ID : A_AC3
Duration : 2 h 4 min
Bit rate mode : Constant
Bit rate : 192 kb/s
Channel(s) : 2 channels
Channel layout : L R
Sampling rate : 48.0 kHz
Frame rate : 31.250 FPS (1536 SPF)
Bit depth : 16 bits
Compression mode : Lossy
Delay relative to video : 170 ms
Stream size : 171 MiB (2%)
Title : Максим Подзігун
Language : Ukrainian
Service kind : Complete Main
Default : No
Forced : No

Audio #3
ID : 4
Format : AC-3
Format/Info : Audio Coding 3
Commercial name : Dolby Digital
Codec ID : A_AC3
Duration : 2 h 4 min
Bit rate mode : Constant
Bit rate : 384 kb/s
Channel(s) : 6 channels
Channel layout : L R C LFE Ls Rs
Sampling rate : 48.0 kHz
Frame rate : 31.250 FPS (1536 SPF)
Bit depth : 16 bits
Compression mode : Lossy
Delay relative to video : 170 ms
Stream size : 341 MiB (4%)
Title : SkySports F1
Language : English
Service kind : Complete Main
Default : No
Forced : No

Audio #4
ID : 5
Format : AC-3
Format/Info : Audio Coding 3
Commercial name : Dolby Digital
Codec ID : A_AC3
Duration : 2 h 4 min
Bit rate mode : Constant
Bit rate : 448 kb/s
Channel(s) : 6 channels
Channel layout : L R C LFE Ls Rs
Sampling rate : 48.0 kHz
Frame rate : 31.250 FPS (1536 SPF)
Bit depth : 16 bits
Compression mode : Lossy
Delay relative to video : 170 ms
Stream size : 398 MiB (5%)
Title : Natural Sounds
Service kind : Complete Main
Default : No
Forced : No
Скріншоти:


 Трекер:    Зареєстрований   

Завантажити / скачати торрент



відео для новачків



 Зареєстрований:   2019-07-09 09:36
 Розмір:   7.58 GB 
 Оцінка:   10/10 (Голосів: 5)
   
antik_2008 
Релізер і модератор відео


З нами з: 20.10.08
Востаннє: 08.12.19
Повідомлень: 2808

2019-07-09 11:57  
sergiyko.5 написано:

Аудіо 1: мова: українська кодек: 2.0 бітрейт: 192 кб/с
Аудіо 2: мова: українська кодек: 2.0 бітрейт: 192 кб/с
Аудіо 3: мова: англійська кодек: 5.1 бітрейт: 384 кб/с
Аудіо 4: мова: - кодек: 5.1 бітрейт: 448 кб/с


sergiyko.5 написано:
Ukr/Eng/Int


Треба трохи підправити.

sergiyko.5 
VIP


З нами з: 25.02.16
Востаннє: 08.12.19
Повідомлень: 2811

2019-07-09 11:59  
Прописав, але не думаю що це критично. В описі вся інформація є.
Ваш часовий пояс: GMT + 2 Години

Нова тема   Відповісти