Людина-павук / Marvel's Spider-Man (Сезон 1) (2017) 1080p Ukr/Eng | sub Eng

Нові коментарі

Нова тема   Відповісти
Автор Повідомлення
sergiyko.5 
Забанено
Забанено


З нами з: 25.02.16
Востаннє: 29.10.20
Повідомлень: 3648

2019-07-08 22:23  


Людина-павук / Marvel's Spider-Man (Сезон 1) (2017) 1080p Ukr/Eng | sub Eng

Людина-павук / Marvel's Spider-Man (Сезон 1) (2017) 1080p Ukr/Eng | sub Eng

Жанр: пригоди, фантастика, бойовик
Країна: США
Компанія: Марвел
Режисер: Філіп Піньотті, Ерік Радомскі

Сюжет:
Пригодницький анімаційний серіал про однойменного персонажа, створеного Стеном Лі та Стівом Дітко. Розумного підлітка на ім'я Пітер Паркер вкусив радіоактивний павук, після чого хлопець отримує супер-силу. Він стає героєм на ім'я Людина-Павук, який повинен пристосуватися до нового способу життя.




Тривалість: 1 серія: 22:07 (цілком серій: 26 з 26)
Якість:

Відео: кодек: розмір кадру: 1920 х 1080 бітрейт: 5500 кб/с
Аудіо # 1: мова: українська переклад: професійний дубльований кодек: 2.0 бітрейт: 192 кб/с
Озвучення: НЛО-ТБ
Аудіо # 2: мова: англійська переклад: оригінал кодек: 5.1 бітрейт: 384 кб/с
Аудіо # 3: мова: англійська переклад: оригінал кодек: 2.0 бітрейт: 160 кб/с
Субтитри: мова: англійська тип: програмні (м’які) формат: *.srt
Перелік серій

00 Початок - Origin
01 Школа "Горизонт". Частина перша - Horizon High. Part 1
02 Школа "Горизонт". Частина друга - Horizon High. Part 2
03 Академія "Осборн" - Osborn Academy
04 Один звичайний день - A Day in the Life
05 Королі вечірок - Party Animals
06 Піщаник - Sandman
07 Симбіотична спорідненість - Symbiotic Relationship
08 - Stark Expo
09 Ultimate Spider-Man
10 Kravens Amazing Hunt
11 Halloween Moon
12 Spider-Man On Ice
13 Venom
14 Screwball Live
15 The Rise of Doc Ock.Part 1
16 The Rise of Doc Ock.Part 2
17 The Rise of Doc Ock.Part 3
18 The Rise of Doc Ock.Part 4
19 Spider-Island.Part 1
20 Spider-Island.Part 2
21 Spider-Island.Part 3
22 Spider-Island.Part 4
23 Spider-Island.Part 5
24 The Hobgoblin.Part 1
25 The Hobgoblin.Part 2
Про файл:
General
Unique ID : 179119168842122063834760229769473600593 (0x86C118DACDBFB7B55E12F70D744EAC51)
Complete name : F:\Torrents2\MULT\MuSERIAL\Marvel. Spider-Man 2017 S01 1080p \S01E01.Horizon High.Part 1.1080p..
Format :
Format version : Version 4
File size : 926 MiB
Duration : 22 min 7 s
Overall bit rate : 5 854 kb/s
Movie name : Marvel. Spider-Man 2017 by sergiyko
Encoded date : UTC 2019-07-08 19:11:02
Writing application : v35.0.0 ('All The Love In The World') 64-bit
Writing library : libebml v1.3.9 + v1.5.2

Video
ID : 1
Format : AVC
Format/Info : Advanced Video Codec
Format profile : [email protected]
Format settings : CABAC / 4 Ref Frames
Format settings, CABAC : Yes
Format settings, Reference : 4 frames
Codec ID : V_MPEG4/ISO/AVC
Duration : 22 min 7 s
Bit rate : 5 118 kb/s
Width : 1 920 pixels
Height : 1 080 pixels
Display aspect ratio : 16:9
Frame rate mode : Constant
Frame rate : 23.976 (24000/1001) FPS
Color space : YUV
Chroma subsampling : 4:2:0
Bit depth : 8 bits
Scan type : Progressive
Bits/(Pixel*Frame) : 0.103
Stream size : 810 MiB (87%)
Title : S01E01.Horizon High.Part 1
Language : English
Default : Yes
Forced : No
Color range : Limited
Color primaries : BT.709
Transfer characteristics : BT.709
Matrix coefficients : BT.709

Audio #1
ID : 2
Format : AC-3
Format/Info : Audio Coding 3
Commercial name : Dolby Digital
Codec ID : A_AC3
Duration : 22 min 7 s
Bit rate mode : Constant
Bit rate : 192 kb/s
Channel(s) : 2 channels
Channel layout : L R
Sampling rate : 48.0 kHz
Frame rate : 31.250 FPS (1536 SPF)
Bit depth : 16 bits
Compression mode : Lossy
Stream size : 30.4 MiB (3%)
Title : DUB | NLO-TV
Language : Ukrainian
Service kind : Complete Main
Default : Yes
Forced : Yes

Audio #2
ID : 3
Format : AC-3
Format/Info : Audio Coding 3
Commercial name : Dolby Digital
Codec ID : A_AC3
Duration : 22 min 7 s
Bit rate mode : Constant
Bit rate : 384 kb/s
Channel(s) : 6 channels
Channel layout : L R C LFE Ls Rs
Sampling rate : 48.0 kHz
Frame rate : 31.250 FPS (1536 SPF)
Bit depth : 16 bits
Compression mode : Lossy
Stream size : 60.8 MiB (7%)
Title : Original
Language : English
Service kind : Complete Main
Default : No
Forced : No

Audio #3
ID : 4
Format : LC
Format/Info : Advanced Audio Codec Low Complexity
Codec ID : A_AAC-2
Duration : 22 min 7 s
Bit rate : 157 kb/s
Channel(s) : 2 channels
Channel layout : L R
Sampling rate : 48.0 kHz
Frame rate : 46.875 FPS (1024 SPF)
Compression mode : Lossy
Stream size : 24.9 MiB (3%)
Language : English
Default : No
Forced : No

Text
ID : 5
Format : UTF-8
Codec ID : S_TEXT/UTF8
Codec ID/Info : UTF-8 Plain Text
Duration : 21 min 35 s
Bit rate : 92 b/s
Count of elements : 419
Stream size : 14.7 KiB (0%)
Language : English
Default : No
Forced : No
Скріншоти:


Запис: Bohdan237
Зведення: sergiyko


Бронзовий реліз (на рейтинг впливає 75% завантаженого)
 Трекер:    Зареєстрований   

Завантажити / скачати мультфільм українською



відео для новачків



 Зареєстрований:   2019-07-31 23:30
 Розмір:   23.32 GB 
 Оцінка мультсеріалу:   9.9/10 (Голосів: 13)
   
sergiyko.5 
Забанено
Забанено


З нами з: 25.02.16
Востаннє: 29.10.20
Повідомлень: 3648

2019-07-09 11:22  
Додав нові серії.
AlexFuerte 
Новенький


З нами з: 29.05.17
Востаннє: 09.02.21
Повідомлень: 3

2019-07-15 18:18  
Дякую. А то прокидатися о 7 ранку не дуже.
sergiyko.5 
Забанено
Забанено


З нами з: 25.02.16
Востаннє: 29.10.20
Повідомлень: 3648

2019-07-31 23:32  
Торент оновлено. Сезон повний. Приємного перегляду!
Ваш часовий пояс: GMT + 2 Години

Нова тема   Відповісти