Кімната / Room (2015) 1080p H.265 Ukr/Eng | Sub Eng

Нові коментарі

Нова тема   Відповісти
Автор Повідомлення
Anonymous 







2019-07-08 22:21  
Кімната / Room (2015) 1080p H.265 Ukr/Eng | Sub Eng

Кімната / Room (2015) 1080p H.265 Ukr/Eng | Sub Eng


Жанр: драма
Країна: Ірландія, Канада
Кінокомпанія: A24, Element Pictures, No Trace Camping
Режисер: Ленні Абрагамсон
Актори: Брі Ларсон, Джейкоб Трімблі, Шон Бріджерс, Джоан Аллен, Венді Крусон

Сюжет:
Коли Джой була маленькою дівчинкою, її викрав маніяк і зачинив у тісній кімнаті. Її п’ятирічний син Джек ніколи не залишав Кімнату і отримував знання про навколишній світ лише з телевізора. Але одного дня вони вирішують втекти…

Тривалість: 01:57:38
Якість:
Відео:
кодек: H.265 (HEVC)
розмір кадру: 1920 x 800
бітрейт: 6 794 кб/с
бітова глибина: 10 біт
Увага! Перед завантаженням переконайтесь, що ваш пристрій відтворення (та/або ПЗ) підтримує H.265 (HEVC)

Аудіо # 1:
мова: українська
переклад: багатоголосий закадровий | Студія Омікрон
кодек: 5.1
бітрейт: 1510 кб/с

Аудіо # 2:
мова: англійська
переклад: оригінал
кодек: 5.1
бітрейт: 1510 кб/с

Субтитри # 1-2: (Full, SDH)
мова: англійська,
тип: програмні (м'які)
формат: *.srt


Info
Код:
General
Unique ID                                : 179718023304589057163177795862777485310 (0x87346EA8C705477E7588632DFEAED7FE)
Complete name                            : Room (2015) 1080p H.265 [UKR_ENG] [Hurtom].
Format                                   :
Format version                           : Version 4 / Version 2
File size                                : 8.06 GiB
Duration                                 : 1 h 57 min
Overall bit rate                         : 9 815 kb/s
Movie name                               : Кімната / Room (2015)
Encoded date                             : UTC 2019-07-08 11:41:50
Writing application                      : v20.0.0 ('I Am The Sun') 64-bit
Writing library                          : libebml v1.3.5 + v1.4.8
Cover                                    : Yes
Attachments                              : Cover.jpg

Video
ID                                       : 1
Format                                   : HEVC
Format/Info                              : High Efficiency Video Coding
Format profile                           : Main [email protected]@High
Codec ID                                 : V_MPEGH/ISO/HEVC
Duration                                 : 1 h 57 min
Bit rate                                 : 6 793 kb/s
Width                                    : 1 920 pixels
Height                                   : 800 pixels
Display aspect ratio                     : 2.40:1
Frame rate mode                          : Constant
Frame rate                               : 23.976 (24000/1001) FPS
Color space                              : YUV
Chroma subsampling                       : 4:2:0
Bit depth                                : 10 bits
Bits/(Pixel*Frame)                       : 0.184
Stream size                              : 5.58 GiB (69%)
Title                                    : Кімната / Room (2015)
Language                                 : English
Default                                  : Yes
Forced                                   : No
Color range                              : Limited
Color primaries                          : BT.709
Transfer characteristics                 : BT.709
Matrix coefficients                      : BT.709

Audio #1
ID                                       : 2
Format                                   :
Format/Info                              : Digital Theater Systems
Codec ID                                 : A_DTS
Duration                                 : 1 h 57 min
Bit rate mode                            : Constant
Bit rate                                 : 1 509 kb/s
Channel(s)                               : 6 channels
Channel positions                        : Front: L C R, Side: L R, LFE
Sampling rate                            : 48.0 kHz
Frame rate                               : 93.750 FPS (512 SPF)
Bit depth                                : 24 bits
Compression mode                         : Lossy
Stream size                              : 1.24 GiB (15%)
Title                                    : БЗ - Omikron
Language                                 : Ukrainian
Default                                  : Yes
Forced                                   : Yes

Audio #2
ID                                       : 3
Format                                   :
Format/Info                              : Digital Theater Systems
Codec ID                                 : A_DTS
Duration                                 : 1 h 57 min
Bit rate mode                            : Constant
Bit rate                                 : 1 509 kb/s
Channel(s)                               : 6 channels
Channel positions                        : Front: L C R, Side: L R, LFE
Sampling rate                            : 48.0 kHz
Frame rate                               : 93.750 FPS (512 SPF)
Bit depth                                : 24 bits
Compression mode                         : Lossy
Stream size                              : 1.24 GiB (15%)
Title                                    : Original
Language                                 : English
Default                                  : No
Forced                                   : No

Text #1
ID                                       : 4
Format                                   : UTF-8
Codec ID                                 : S_TEXT/UTF8
Codec ID/Info                            : UTF-8 Plain Text
Duration                                 : 1 h 50 min
Bit rate                                 : 48 b/s
Count of elements                        : 1601
Stream size                              : 38.7 KiB (0%)
Title                                    : Full
Language                                 : English
Default                                  : No
Forced                                   : No

Text #2
ID                                       : 5
Format                                   : UTF-8
Codec ID                                 : S_TEXT/UTF8
Codec ID/Info                            : UTF-8 Plain Text
Duration                                 : 1 h 51 min
Bit rate                                 : 51 b/s
Count of elements                        : 1758
Stream size                              : 42.1 KiB (0%)
Title                                    : SDH
Language                                 : English
Default                                  : No
Forced                                   : No

Menu
00:00:00.000                             : :Chapter 01
00:07:07.427                             : :Chapter 02
00:12:23.033                             : :Chapter 03
00:24:29.759                             : :Chapter 04
00:31:11.786                             : :Chapter 05
00:37:16.859                             : :Chapter 06
00:47:27.761                             : :Chapter 07
00:52:27.018                             : :Chapter 08
00:59:46.040                             : :Chapter 09
01:09:29.582                             : :Chapter 10
01:16:51.523                             : :Chapter 11
01:23:52.861                             : :Chapter 12
01:31:30.943                             : :Chapter 13
01:37:03.150                             : :Chapter 14
01:43:28.493                             : :Chapter 15
01:48:23.955                             : :Chapter 16
Світлини




Джерело: &
Особиста оцінка: 0 - не дивився


Авторський реліз (завантажувати можна без реєстрації)
 Трекер:    Зареєстрований   

Завантажити / скачати фільм українською



відео для новачків



 Зареєстрований:   2019-07-08 22:21
 Розмір:   8.06 GB 
 Оцінка фільму:   9/10 (Голосів: 3)
   
Інші релізи
   Кімната / Room (2015) Ukr/Eng boroznaya  4 / 0   2.18 GB   2018-02-03 18:47 
   Кімната / Room (2015) AVC Ukr/Eng | Sub Eng Загора  5 / 0   1.96 GB   2016-05-19 00:20 
   Кімната / Room (2015) Omikron  7 / 0   1.45 GB   2016-04-08 15:17 
   Кімната / Room (2015) 720p Ukr/Eng | sub Eng Omikron  10 / 0   2.33 GB   2016-04-08 15:17 
   Кімната / Room (2015) Remux 1080p Ukr/Eng | Sub Eng Omikron  2 / 0   35.88 GB   2016-04-05 16:48 
   Кімната / Room (2015) 1080p Ukr/Eng | sub Eng Omikron  5 / 0   15.23 GB   2016-04-05 16:24 
Ваш часовий пояс: GMT + 2 Години

Нова тема   Відповісти