Мисливці за розумом / Mindhunters (2004) 1080p H.265 3xUkr/Eng | Sub Eng

Нові коментарі

Нова тема   Відповісти
Автор Повідомлення
Anonymous 







2019-07-08 22:17  
Мисливці за розумом / Mindhunters (2004) 1080p H.265 3xUkr/Eng | Sub Eng

Мисливці за розумом / Mindhunters (2004) 1080p H.265 3xUkr/Eng | Sub Eng


Жанр: трилер, драма, детектив
Країна: США, Нідерланди, Велика Британія, Фінляндія
Кінокомпанія: Dimension Films, Intermedia Films, Outlaw Productions (I)
Режисер: Ренні Гарлін
Актори: Ійон Бейлі, Кліфтон Коллінс, Вілл Кемп, Вел Кілмер, Джонні Лі Міллер, Кетрін Морріс, Крістіан Слейтер, Патриція Веласкіс

Сюжет:
На віддаленому острові сім майбутніх агентів ФБР проходять вирішальний тест, щоб потрапити в елітний відділ "мисливців за розумом" - людей, які за найдрібнішими доказами і будь-якими відомостями складають психологічні профілі найнебезпечніших злочинців.

Але випробування стає занадто реальним, коли в їх групі виявляється справжній серійний вбивця. Чи встигнуть ті, хто залишився в живих, виявити маніяка у своїх рядах, поки він не розправився з кожним поодинці?

Тривалість: 01:45:52
Якість:
Відео:
кодек: H.265 (HEVC)
розмір кадру: 1920 x 816
бітрейт: 6 884 кб/с
бітова глибина: 10 біт
Увага! Перед завантаженням переконайтесь, що ваш пристрій відтворення (та/або ПЗ) підтримує H.265 (HEVC)

Аудіо # 1:
мова: українська
переклад: двоголосий закадровий
кодек: AC-3 2.0
бітрейт: 192 кб/с

Аудіо # 2:
мова: українська
переклад: двоголосий закадровий
кодек: AC-3 2.0
бітрейт: 192 кб/с

Аудіо # 3:
мова: українська
переклад: двоголосий закадровий
кодек: AC-3 2.0
бітрейт: 192 кб/с

Аудіо # 4:
мова: англійська
переклад: оригінал
кодек: 5.1
бітрейт: 1510 кб/с

Субтитри # 1:
мова: англійська (Full),
тип: програмні (м'які)
формат: *.srt


Info
Код:
General
Unique ID                                : 181711589237237257187042365680962803521 (0x88B4610C65BA10B656308FA89E209741)
Complete name                            : Mindhunters (2004) 1080p H.265 [3xUKR_ENG] [Hurtom].
Format                                   :
Format version                           : Version 4 / Version 2
File size                                : 6.64 GiB
Duration                                 : 1 h 45 min
Overall bit rate                         : 8 972 kb/s
Movie name                               : Мисливці за розумом / Mindhunters (2004)
Encoded date                             : UTC 2019-07-08 11:43:54
Writing application                      : v20.0.0 ('I Am The Sun') 64-bit
Writing library                          : libebml v1.3.5 + v1.4.8
Cover                                    : Yes
Attachments                              : Cover.jpg

Video
ID                                       : 1
Format                                   : HEVC
Format/Info                              : High Efficiency Video Coding
Format profile                           : Main [email protected]@High
Codec ID                                 : V_MPEGH/ISO/HEVC
Duration                                 : 1 h 45 min
Bit rate                                 : 6 884 kb/s
Width                                    : 1 920 pixels
Height                                   : 816 pixels
Display aspect ratio                     : 2.35:1
Frame rate mode                          : Constant
Frame rate                               : 23.976 (24000/1001) FPS
Color space                              : YUV
Chroma subsampling                       : 4:2:0
Bit depth                                : 10 bits
Bits/(Pixel*Frame)                       : 0.183
Stream size                              : 5.09 GiB (77%)
Title                                    : Мисливці за розумом / Mindhunters (2004)
Language                                 : English
Default                                  : Yes
Forced                                   : No
Color range                              : Limited
Color primaries                          : BT.709
Transfer characteristics                 : BT.709
Matrix coefficients                      : BT.709

Audio #1
ID                                       : 2
Format                                   : AC-3
Format/Info                              : Audio Coding 3
Codec ID                                 : A_AC3
Duration                                 : 1 h 45 min
Bit rate mode                            : Constant
Bit rate                                 : 192 kb/s
Channel(s)                               : 2 channels
Channel positions                        : Front: L R
Sampling rate                            : 48.0 kHz
Frame rate                               : 31.250 FPS (1536 SPF)
Bit depth                                : 16 bits
Compression mode                         : Lossy
Stream size                              : 145 MiB (2%)
Title                                    : ДЗ - 1+1
Language                                 : Ukrainian
Service kind                             : Complete Main
Default                                  : Yes
Forced                                   : Yes

Audio #2
ID                                       : 3
Format                                   : AC-3
Format/Info                              : Audio Coding 3
Codec ID                                 : A_AC3
Duration                                 : 1 h 45 min
Bit rate mode                            : Constant
Bit rate                                 : 192 kb/s
Channel(s)                               : 2 channels
Channel positions                        : Front: L R
Sampling rate                            : 48.0 kHz
Frame rate                               : 31.250 FPS (1536 SPF)
Bit depth                                : 16 bits
Compression mode                         : Lossy
Stream size                              : 145 MiB (2%)
Title                                    : ДЗ - Inter
Language                                 : Ukrainian
Service kind                             : Complete Main
Default                                  : No
Forced                                   : No

Audio #3
ID                                       : 4
Format                                   : AC-3
Format/Info                              : Audio Coding 3
Codec ID                                 : A_AC3
Duration                                 : 1 h 45 min
Bit rate mode                            : Constant
Bit rate                                 : 192 kb/s
Channel(s)                               : 2 channels
Channel positions                        : Front: L R
Sampling rate                            : 48.0 kHz
Frame rate                               : 31.250 FPS (1536 SPF)
Bit depth                                : 16 bits
Compression mode                         : Lossy
Stream size                              : 145 MiB (2%)
Title                                    : ДЗ - K1
Language                                 : Ukrainian
Service kind                             : Complete Main
Default                                  : No
Forced                                   : No

Audio #4
ID                                       : 5
Format                                   :
Format/Info                              : Digital Theater Systems
Codec ID                                 : A_DTS
Duration                                 : 1 h 45 min
Bit rate mode                            : Constant
Bit rate                                 : 1 509 kb/s
Channel(s)                               : 6 channels
Channel positions                        : Front: L C R, Side: L R, LFE
Sampling rate                            : 48.0 kHz
Frame rate                               : 93.750 FPS (512 SPF)
Bit depth                                : 16 bits
Compression mode                         : Lossy
Stream size                              : 1.12 GiB (17%)
Title                                    : Original
Language                                 : English
Default                                  : No
Forced                                   : No

Text
ID                                       : 6
Format                                   : UTF-8
Codec ID                                 : S_TEXT/UTF8
Codec ID/Info                            : UTF-8 Plain Text
Duration                                 : 1 h 37 min
Bit rate                                 : 48 b/s
Count of elements                        : 1198
Stream size                              : 34.3 KiB (0%)
Title                                    : Full
Language                                 : English
Default                                  : No
Forced                                   : No

Menu
00:00:00.000                             : en:Your Turn
00:04:01.574                             : en:Private
00:10:12.445                             : en:Get Used To It
00:15:10.826                             : en:Don't Work Too Hard
00:19:33.213                             : en:Crimetown USA
00:25:51.716                             : en:Feeding The Ducks
00:30:45.510                             : en:Here Kitty Kitty
00:36:33.399                             : en:Ten O'Clock
00:41:41.207                             : en:No Time For Fear
00:47:49.032                             : en:Coffee
00:57:20.019                             : en:Goin' Somewhere?
01:06:23.729                             : en:Just a Number
01:12:08.574                             : en:Lights Out
01:18:31.748                             : en:Croatoan
01:24:33.818                             : en:Got Something
01:28:25.091                             : en:It's Not Me
01:34:29.372                             : en:Strength And Weakness
01:40:02.454                             : en:Are You Having Fun?
Світлини




Джерело: &
Особиста оцінка: 0 - не дивився


Срібний реліз (на рейтинг впливає 50% завантаженого)
 Трекер:    Зареєстрований   

Завантажити / скачати фільм українською



відео для новачків



 Зареєстрований:   2019-07-08 22:17
 Розмір:   6.64 GB 
 Оцінка фільму:   10/10 (Голосів: 3)
   
rudder1992 
Поважний учасник


З нами з: 26.02.17
Востаннє: 23.09.20
Повідомлень: 182

2019-08-03 22:30  
Дививився по телеку це кіно майже як тільки воно вийшло. Скажу відверто був прямо ''отвал башки''!
згодом після більш ніж 10 років захотів знову переглянути цей закручений фільм.(як в підлітковому віці так і зараз (мені 27) маю сильну любов до трилерів-детективів) І скажу ВАМ що і зараз фільм виявився цікавим і актуальним. В цілому фільм просто класний. Але кінцівка фільму дещо розчарувала... 8 із 10
Як би не дещо тупуватий фінал фільму поставив би 10! А так...
Все ж Ренні Гарлін хороший режисер і старається професійно і грамотно підійти до зйомок своїх картин(та не всіх)

Gordon77 
Новенький


З нами з: 09.11.15
Востаннє: 20.09.20
Повідомлень: 5

2019-09-17 23:54  
"невміють".... мдеее
Ваш часовий пояс: GMT + 2 Години

Нова тема   Відповісти