Труднощі перекладу / Lost in Translation (2003) 1080p H.265 Ukr/Eng | Sub Eng

Нові коментарі

Нова тема   Відповісти
Автор Повідомлення
Anonymous 







2019-07-08 22:10  
Труднощі перекладу / Lost in Translation (2003) 1080p H.265 Ukr/Eng | Sub Eng

Труднощі перекладу / Lost in Translation (2003) 1080p H.265 Ukr/Eng | Sub Eng


Жанр: драма, комедія
Країна: США, Японія
Кінокомпанія: American Zoetrope, Elemental Films, Focus Features, Tohokashinsha Film Company Ltd., Gray Matter FX, Rods & Cones
Режисер: Софія Коппола
Актори: Скарлетт Йоханссон, Білл Мюррей, Акіко Такешіта, Казуко Шібата, Акіра Ямагучі, Кетрін Лемберт, Франсуа Ду Бойс

Сюжет:
Токіо, ніч, фешенебельний бар дорогого готелю ... Тут, рятуючись від безсоння, зустрічаються двоє американців: телевізійний актор Боб Гарріс і симпатична молода жінка Шарлотта.
Познайомившись, вони разом відправляються у подорож японською столицею. Під час своєї багатогодинної прогулянки Боб і Шарлотта потрапляють в забавні історії та несподівані перипетії, знайомлячись з місцевими жителями.
Життя східного світу відкривається американцям яскравими і незнайомими гранями, допомагає виявити в собі віру в приголомшливі людські можливості. А випадкові зустрічі стають дуже потрібними і важливими для осягнення життя.

Тривалість: 01:41:46
Якість:
Відео:
кодек: H.265 (HEVC)
розмір кадру: 1920 x 1040
бітрейт: 6 929 кб/с
бітова глибина: 10 біт
Увага! Перед завантаженням переконайтесь, що ваш пристрій відтворення (та/або ПЗ) підтримує H.265 (HEVC)

Аудіо # 1:
мова: українська
переклад: багатоголосий закадровий | студія Омікрон
кодек: 5.1
бітрейт: 1510 кб/с

Аудіо # 2:
мова: англійська
переклад: оригінал
кодек: 5.1
бітрейт: 1511 кб/с

Субтитри # 1:
мова: англійська (Full),
тип: програмні (м'які)
формат: *.srt


Info
Код:
General
Unique ID                                : 290140742700077445201908884969194267083 (0xDA47130ED898743229435EA4192821CB)
Complete name                            : Lost in Translation (2003) 1080p H.265 [UKR_ENG] [Hurtom].
Format                                   :
Format version                           : Version 4 / Version 2
File size                                : 7.07 GiB
Duration                                 : 1 h 41 min
Overall bit rate                         : 9 951 kb/s
Movie name                               : Труднощі перекладу / Lost in Translation (2003)
Encoded date                             : UTC 2019-07-08 18:10:27
Writing application                      : v20.0.0 ('I Am The Sun') 64-bit
Writing library                          : libebml v1.3.5 + v1.4.8
Cover                                    : Yes
Attachments                              : Cover.jpg

Video
ID                                       : 1
Format                                   : HEVC
Format/Info                              : High Efficiency Video Coding
Format profile                           : Main [email protected]@High
Codec ID                                 : V_MPEGH/ISO/HEVC
Duration                                 : 1 h 41 min
Bit rate                                 : 6 929 kb/s
Width                                    : 1 920 pixels
Height                                   : 1 040 pixels
Display aspect ratio                     : 1.85:1
Frame rate mode                          : Constant
Frame rate                               : 23.976 (24000/1001) FPS
Color space                              : YUV
Chroma subsampling                       : 4:2:0
Bit depth                                : 10 bits
Bits/(Pixel*Frame)                       : 0.145
Stream size                              : 4.93 GiB (70%)
Title                                    : Труднощі перекладу / Lost in Translation (2003)
Language                                 : English
Default                                  : Yes
Forced                                   : No
Color range                              : Limited
Color primaries                          : BT.709
Transfer characteristics                 : BT.709
Matrix coefficients                      : BT.709

Audio #1
ID                                       : 2
Format                                   :
Format/Info                              : Digital Theater Systems
Codec ID                                 : A_DTS
Duration                                 : 1 h 41 min
Bit rate mode                            : Constant
Bit rate                                 : 1 509 kb/s
Channel(s)                               : 6 channels
Channel positions                        : Front: L C R, Side: L R, LFE
Sampling rate                            : 48.0 kHz
Frame rate                               : 93.750 FPS (512 SPF)
Bit depth                                : 24 bits
Compression mode                         : Lossy
Delay relative to video                  : 50 ms
Stream size                              : 1.07 GiB (15%)
Title                                    : БЗ - Omikron - 5.1 @ 1536 kbps
Language                                 : Ukrainian
Default                                  : Yes
Forced                                   : Yes

Audio #2
ID                                       : 3
Format                                   :
Format/Info                              : Digital Theater Systems
Codec ID                                 : A_DTS
Duration                                 : 1 h 41 min
Bit rate mode                            : Constant
Bit rate                                 : 1 510 kb/s
Channel(s)                               : 6 channels
Channel positions                        : Front: L C R, Side: L R, LFE
Sampling rate                            : 48.0 kHz
Frame rate                               : 93.750 FPS (512 SPF)
Bit depth                                : 24 bits
Compression mode                         : Lossy
Delay relative to video                  : 3 ms
Stream size                              : 1.07 GiB (15%)
Title                                    : Original - 5.1 @ 1536 kbps
Language                                 : English
Default                                  : No
Forced                                   : No

Text
ID                                       : 4
Format                                   : UTF-8
Codec ID                                 : S_TEXT/UTF8
Codec ID/Info                            : UTF-8 Plain Text
Duration                                 : 1 h 39 min
Bit rate                                 : 50 b/s
Count of elements                        : 1244
Stream size                              : 37.2 KiB (0%)
Title                                    : Full
Language                                 : English
Default                                  : Yes
Forced                                   : No

Menu
00:00:00.000                             : :Chapter 01
00:01:09.569                             : :Chapter 02
00:06:07.158                             : :Chapter 03
00:08:30.426                             : :Chapter 04
00:11:59.301                             : :Chapter 05
00:16:05.214                             : :Chapter 06
00:20:01.783                             : :Chapter 07
00:26:15.740                             : :Chapter 08
00:30:44.843                             : :Chapter 09
00:36:39.655                             : :Chapter 10
00:41:28.068                             : :Chapter 11
00:48:24.026                             : :Chapter 12
00:55:20.400                             : :Chapter 13
00:58:35.637                             : :Chapter 14
00:59:52.255                             : :Chapter 15
01:05:54.575                             : :Chapter 16
01:13:24.400                             : :Chapter 17
01:17:34.107                             : :Chapter 18
01:22:09.132                             : :Chapter 19
01:24:21.848                             : :Chapter 20
01:25:54.899                             : :Chapter 21
01:29:08.384                             : :Chapter 22
01:32:01.265                             : :Chapter 23
01:35:57.418                             : :Chapter 24
Світлини




Джерело: &
Особиста оцінка: 0 - не дивився


Авторський реліз (завантажувати можна без реєстрації)
 Трекер:    Зареєстрований   

Завантажити / скачати фільм українською



відео для новачків



 Зареєстрований:   2019-07-08 22:10
 Розмір:   7.07 GB 
 Оцінка фільму:   9.3/10 (Голосів: 4)
   
Ваш часовий пояс: GMT + 2 Години

Нова тема   Відповісти