Світ тварин (Animal World) / Dong wu shi jie (2018) AVC

Нові коментарі

Нова тема   Відповісти
Автор Повідомлення
Anonymous 







2019-07-07 20:25  
Світ тварин / Animal World / Dong wu shi jie (2018) AVC

Світ тварин (Animal World) / Dong wu shi jie (2018) AVC
Альтернативні постери:

Світ тварин (Animal World) / Dong wu shi jie (2018) AVC







Жанр: драма, трилер, пригодницький, фантастика
Країна: Китай



Кінокомпанія: Beijing Ruyi Xinxin Film Investment, Shanghai Ruyi Entertainment Co., Enlight Pictures, Tencent, Gravity Pictures, Er Dong Pictures, Jixiang Entertainment, Fire Dragon Guo Pictures
Режисер: Хань Янь / Han Yan
Актори: Лі Іфен / Yifeng Li, Чжоу Дун’юй / Dongyu Zhou, Майкл Дуглас / Michael Douglas, Цао Бінкунь / Bingkun Cao, Ерік Хейз / Eric Heise, Альберто Ланселлотті / Alberto Lancellotti, Лі Іцзюань / Yijuan Li, Кіт Шілліто / Keith Shillitoe, Ван Ге / Ge Wang та інші

Сюжет:
Актор, нездатний реалізувати себе, змушений підробляти клоуном. Але зароблених грошей йому катастрофічно не вистачає на нормальне життя. У підсумку він опиняється в надзвичайно скрутному становищі, а його мама через серйозні проблеми зі здоров'ям потрапляє в лікарню. Хлопець починає шукати спосіб заробити необхідну суму, щоб хоч якось стати на ноги, оплатити лікування матері і почати жити по-людськи. І несподівано йому випадає унікальний шанс домогтися всього, про що він тільки міг мріяти. Його запрошують на таємничий корабель, де один впливовий чоловік влаштовує азартні ігри для людей з усього світу.

Ставки в грі виявляються дуже високими, і ті, хто програв повинні віддати своє життя. Таємнича гра «Число долі» пропонують всім нужденним можливість проявити себе. І кожен з учасників може перемогти, заробивши купу грошей, або програти і втратити життя. Герой, незважаючи на можливі ризики, не має наміру відступати. Він хоче довести гру до кінця, і він зробить все можливе, щоб перемогти в ній. Тепер у нього є всього одна ніч, щоб отримати величезну суму грошей або віддати своє життя. Чи зможе він подолати приготовані для нього випробування і перемогти в смертельно небезпечній грі?
Український (DZUSKI.com) та офіційний трейлери:

український трейлер від dzuski.com:


офіційний трейлер:

Вікова категорія: 16+

Тривалість: 02:10:19
Якість: AVC
Відео:
кодек:
розмір кадру: 912 х 342
бітрейт: 1352 кб/с

Аудіо:
мова: українська
переклад: багатоголосий закадровий
кодек: 2.0 [стерео]
бітрейт: 152 кб/с
примітка: обережно, присутні матюки!
переклад: Костянтин Hitler
ролі озвучили: Gidozepamchuk, Ломаєв, Валентин Мельничук, Тріна Дубовицька
Джерело озвучення:
Info
Код:

Complete name               : Animal World (Dong wu shi jie) (2018) [Ukr] AVC [Hurtom].
Format                      :
Format version              : Version 4
File size                   : 1.37 GiB
Duration                    : 2 h 10 min
Overall bit rate            : 1 507 kb/s
Movie name                  : Світ тварин / Animal World / Dong wu shi jie (2018) [Ukr] AVC [Hurtom]
Encoded date                : UTC 2019-07-07 16:59:30
Writing application         : v35.0.0 ('All The Love In The World') 64-bit
Writing library             : libebml v1.3.9 + v1.5.2
Cover                       : Yes
Attachments                 : cover.jpg

Video
ID                          : 1
Format                      : AVC
Format/Info                 : Advanced Video Codec
Format profile              : [email protected]
Format settings             : CABAC / 11 Ref Frames
Format settings, CABAC      : Yes
Format settings, Reference  : 11 frames
Codec ID                    : V_MPEG4/ISO/AVC
Duration                    : 2 h 10 min
Bit rate                    : 1 352 kb/s
Width                       : 912 pixels
Height                      : 342 pixels
Display aspect ratio        : 2.667
Frame rate mode             : Constant
Frame rate                  : 24.000 FPS
Color space                 : YUV
Chroma subsampling          : 4:2:0
Bit depth                   : 8 bits
Scan type                   : Progressive
Bits/(Pixel*Frame)          : 0.181
Stream size                 : 1.23 GiB (90%)
Title                       : Світ тварин / Animal World / Dong wu shi jie (2018) AVC
Writing library             : core 157 r2935 545de2f
Encoding settings           : cabac=1 / ref=11 / deblock=1:-2:-2 / analyse=0x3:0x113 / me=umh / subme=10 / psy=1 / psy_rd=1.00:0.00 / mixed_ref=1 / me_range=32 / chroma_me=1 / trellis=2 / 8x8dct=1 / cqm=0 / deadzone=21,11 / fast_pskip=0 / chroma_qp_offset=-2 / threads=12 / lookahead_threads=2 / sliced_threads=0 / nr=0 / decimate=1 / interlaced=0 / bluray_compat=0 / constrained_intra=0 / bframes=11 / b_pyramid=2 / b_adapt=2 / b_bias=0 / direct=1 / weightb=1 / open_gop=0 / weightp=2 / keyint=240 / keyint_min=24 / scenecut=40 / intra_refresh=0 / rc_lookahead=60 / rc=crf / mbtree=0 / crf=17.6 / qcomp=0.60 / qpmin=0 / qpmax=69 / qpstep=4 / vbv_maxrate=50000 / vbv_bufsize=62500 / crf_max=0.0 / nal_hrd=none / filler=0 / ip_ratio=1.40 / pb_ratio=1.30 / aq=1:1.00
Language                    : English
Default                     : Yes
Forced                      : No

Audio
ID                          : 2
Format                      : LC
Format/Info                 : Advanced Audio Codec Low Complexity
Codec ID                    : A_AAC-2
Duration                    : 2 h 10 min
Bit rate                    : 152 kb/s
Channel(s)                  : 2 channels
Channel layout              : L R
Sampling rate               : 44.1 kHz
Frame rate                  : 43.066 FPS (1024 SPF)
Compression mode            : Lossy
Stream size                 : 142 MiB (10%)
Title                       : MVO [Dzuski.com] 2.0 152 Kbps
Language                    : Ukrainian
Default                     : Yes
Forced                      : No


Джерело: & DZUSKI.com &
Подяки: за українську доріжку DZUSKI.com та п.Konstantin_Exorcist, за постери - mrgalser та Otaku-First


Авторський реліз (завантажувати можна без реєстрації)
 Трекер:    Зареєстрований   

Завантажити / скачати фільм українською



відео для новачків



 Зареєстрований:   2019-07-07 20:25
 Розмір:   1.37 GB 
 Оцінка фільму:   9.2/10 (Голосів: 14)
 ЗАЛИШАЙТЕСЬ ЯКОМОГА ДОВШЕ НА РОЗДАЧІ! ЗАВАНТАЖИВ САМ - ДАЙ ЗАВАНТАЖИТИ ІНШИМ!
   
pawelek77 
Новенький


З нами з: 25.09.13
Востаннє: 22.08.19
Повідомлень: 18

2019-07-08 12:10  
Хвора маячня. Навіщо таке перекладати?
Trina_D 
Забанено
Забанено


З нами з: 24.05.10
Востаннє: 18.08.19
Повідомлень: 46

2019-07-08 16:45  
pawelek77
оце як ваш комент один в один, користуючись вашою логікою. потрібно перекладати лише те що вам заходить))) дивовижно)))

mrgalser 
Новенький


З нами з: 19.12.18
Востаннє: 24.08.19
Повідомлень: 14

2019-07-08 17:47  
Anonymous 







2019-07-08 18:58  
mrgalser написано:
Постер

дякую.

banderlog12345 
Частий відвідувач


З нами з: 15.03.13
Востаннє: 24.08.19
Повідомлень: 31

2019-07-10 11:18  
перше речення опису точно про мене...тре дивитися!
TAAANK 
Новенький


З нами з: 10.03.09
Востаннє: 22.08.19
Повідомлень: 3

2019-07-27 03:50  
Фільм супер! Не очікував, вважав що на раз глянути. Завантажив виключно через Дуґласа). Акторська гра,особисто мені, не дуже зайшла, але і не гімно, можливо просто специфіка "азіятського" кінематографа. Але меседж, сюжет.... Однозначно вартує перегляду. Хто чекав фокусів як в джекі чана - явно "не то пальто".
Nickolassssssss 
Свій


З нами з: 31.05.14
Востаннє: 24.08.19
Повідомлень: 104

2019-08-03 18:06  
Фільм здивував, я очікував гіршого. Фільм китайський, це не Голлівуд, графіка відповідна, проте дивитись можна, сюжет посередній, але могло б бути гірше. Сама ідея гри цікава, нетипова для кіно. Було багато передбачуваних моментів, проте непередбачуваних було значно більше.
Дуже сподобався стиль фільму, знято гарно. Також сподобалось, що треба ставити на паузу, щоб обдумати все, що відбувається.
Загалом, раджу всім поглянути, не будете розчаровані.

P.S. І нехай не вводять вас в оману монстри на скріншотах, фільм зовсім не про це.

Ваш часовий пояс: GMT + 2 Години

Нова тема   Відповісти