Людина-оркестр / L'homme orchestre (1970) Remux 1080p 3хUkr/Fra | Sub Fra

Нові коментарі

Нова тема   Відповісти
Останній раз роздавалося MakRA (2020-09-29)
Автор Повідомлення
MakRA 
VIP


З нами з: 11.11.18
Востаннє: 29.09.20
Повідомлень: 1120

2019-07-06 22:56  
Людина-оркестр / L'homme orchestre (1970) Remux 1080p 3хUkr/Fra | Sub Fra

Людина-оркестр / L'homme orchestre (1970) Remux 1080p 3хUkr/Fra | Sub Fra

Альтернативний український постер:

Альтернативні обкладинки:




Жанр: комедія, музичний
Країна: Франція



Кінокомпанія: Gaumont
Режисер: Серж Корбер [Serge Korber]
Актори: Луї де Фюнес [Louis de Funès], Даніель Белю [Daniel Bellus], Макс Деро [Max Desrau], Ноель Адам [Noëlle Adam], Олівьє Де Фюнес [Olivier De Funès], Тиберіо Мюржія [Tiberio Murgia], Вітторіа де Сільверіо [Vittoria Di Silverio], Паоло Тодеско [Paola Tedesco], Франко Вольпі [Franco Volpi]

Сюжет:
Живе на світі геніальний продюсер Еванс, який вміє створювати феєричні шоу буквально з повітря. Він створив групу сучасного балету, що складається виключно з дівчат. Для них він вигадує найсміливіші експериментальні номери, з ними репетирує і роз'їжджає по світу. У той же час він неухильно за ними стежить - щоб були у формі, щоб не їли зайвого, а головне - щоб ні в якому разі не заводили романів...


Тривалість: 01:25:30
Якість: Remux 1080p
Відео:
кодек:
розмір кадру: 1920 х 1080
бітрейт: 30,0 Mб/с

Аудіо # 1:
мова: українська
переклад: двоголосий закадровий | Студія "ТВ+" на замовлення "Аврора Дистрибушн"
кодек: 2.0
бітрейт: 192 кб/с
Про озвучення:
Ролі озвучили:Дмитро Завадський і Тетяна Зіновенко.
Аудіо # 2:
мова: українська
переклад: двоголосий закадровий
кодек: 2.0
бітрейт: 192 кб/с
Про озвучення:
Ролі озвучили:Олександр Завальський і Ніна Касторф.
Аудіо # 3:
мова: українська
переклад: двоголосий закадровий
кодек: 2.0
бітрейт: 192 кб/с
Про озвучення:
Ролі озвучили:Ярослав Чорненький і Наталя Задніпровська.
Аудіо # 4:
мова: французька
переклад: оригінал
кодек: -HD MA 2.0
бітрейт: 853 кб/с

Аудіо # 5:
мова: французька
переклад: оригінал
кодек: 2.0
бітрейт: 192 кб/с

Аудіо # 6:
мова: французька
переклад: оригінал | коментарі
кодек: 2.0
бітрейт: 768 кб/с

Субтитри: (SDH Colored)
мова: французька
тип: пререндерні
формат: *.pgs

Субтитри: (Full)
мова: французька
тип: програмні (м'які)
формат: *.srt

Субтитри: (Full)
мова: англійська
тип: програмні (м'які)
формат: *.srt
Info
General
Unique ID : 131720359088947439885202441075519703017 (0x63186B1B4FA44F4734A80D426E60C7E9)
Complete name : F:\+Фільмографії-Луї Де Фюнес [Louis de Funès]\L'homme orchestre (1970) Remux 1080p 3хUkrFra Sub Fra [Hurtom].
Format :
Format version : Version 4 / Version 2
File size : 19.4 GiB
Duration : 1 h 25 min
Overall bit rate mode : Variable
Overall bit rate : 32.4 Mb/s
Movie name : Людина-оркестр / L'homme orchestre (1970) Remux 1080p 3хUkr/Fra | Sub Fra [Hurtom]
Encoded date : UTC 2019-07-05 23:04:47
Writing application : v25.0.0 ('Prog Noir') 64-bit
Writing library : libebml v1.3.6 + v1.4.9

Video
ID : 1
Format : AVC
Format/Info : Advanced Video Codec
Format profile : [email protected]
Format settings, CABAC : Yes
Format settings, RefFrames : 4 frames
Format settings, GOP : M=3, N=24
Codec ID : V_MPEG4/ISO/AVC
Duration : 1 h 25 min
Bit rate mode : Variable
Bit rate : 30.0 Mb/s
Maximum bit rate : 35.0 Mb/s
Width : 1 920 pixels
Height : 1 080 pixels
Display aspect ratio : 16:9
Frame rate mode : Constant
Frame rate : 24.000 FPS
Standard : NTSC
Color space : YUV
Chroma subsampling : 4:2:0
Bit depth : 8 bits
Scan type : Progressive
Bits/(Pixel*Frame) : 0.603
Stream size : 17.9 GiB (93%)
Title : L'homme orchestre (1970) Remux 1080p 3хUkr/Fra | Sub Fra [Hurtom]
Language : Ukrainian
Default : Yes
Forced : Yes
Color range : Limited
Color primaries : BT.709
Transfer characteristics : BT.709
Matrix coefficients : BT.709

Audio #1
ID : 2
Format : AC-3
Format/Info : Audio Coding 3
Format settings, Endianness : Big
Codec ID : A_AC3
Duration : 1 h 25 min
Bit rate mode : Constant
Bit rate : 192 kb/s
Channel(s) : 2 channels
Channel positions : Front: L R
Sampling rate : 48.0 kHz
Frame rate : 31.250 FPS (1536 SPF)
Bit depth : 16 bits
Compression mode : Lossy
Stream size : 117 MiB (1%)
Title : DVO [ENTER] | Студія "ТВ+" на замовлення "Аврора Дистрибушн"
Language : Ukrainian
Service kind : Complete Main
Default : Yes
Forced : Yes

Audio #2
ID : 3
Format : AC-3
Format/Info : Audio Coding 3
Format settings, Endianness : Big
Codec ID : A_AC3
Duration : 1 h 25 min
Bit rate mode : Constant
Bit rate : 192 kb/s
Channel(s) : 2 channels
Channel positions : Front: L R
Sampling rate : 48.0 kHz
Frame rate : 31.250 FPS (1536 SPF)
Bit depth : 16 bits
Compression mode : Lossy
Stream size : 117 MiB (1%)
Title : DVO [1+1]
Language : Ukrainian
Service kind : Complete Main
Default : No
Forced : No

Audio #3
ID : 4
Format : AC-3
Format/Info : Audio Coding 3
Format settings, Endianness : Big
Codec ID : A_AC3
Duration : 1 h 25 min
Bit rate mode : Constant
Bit rate : 192 kb/s
Channel(s) : 2 channels
Channel positions : Front: L R
Sampling rate : 48.0 kHz
Frame rate : 31.250 FPS (1536 SPF)
Bit depth : 16 bits
Compression mode : Lossy
Stream size : 117 MiB (1%)
Title : DVO [СТБ]
Language : Ukrainian
Service kind : Complete Main
Default : No
Forced : No

Audio #4
ID : 5
Format :
Format/Info : Digital Theater Systems
Format profile : MA / Core
Mode : 16
Format settings, Endianness : Big
Codec ID : A_DTS
Duration : 1 h 25 min
Bit rate mode : Variable / Constant
Bit rate : 853 kb/s / 768 kb/s
Channel(s) : 2 channels
Channel positions : Front: L R
Sampling rate : 48.0 kHz
Frame rate : 93.750 FPS (512 SPF)
Bit depth : 24 bits
Compression mode : Lossless / Lossy
Stream size : 522 MiB (3%)
Title : Original -HD MA 2.0
Language : French
Default : No
Forced : No

Audio #5
ID : 6
Format : AC-3
Format/Info : Audio Coding 3
Format settings, Endianness : Big
Codec ID : A_AC3
Duration : 1 h 25 min
Bit rate mode : Constant
Bit rate : 192 kb/s
Channel(s) : 2 channels
Channel positions : Front: L R
Sampling rate : 48.0 kHz
Frame rate : 31.250 FPS (1536 SPF)
Bit depth : 16 bits
Compression mode : Lossy
Stream size : 117 MiB (1%)
Title : Original 2.0
Language : French
Service kind : Complete Main
Default : No
Forced : No

Audio #6
ID : 7
Format :
Format/Info : Digital Theater Systems
Mode : 16
Format settings, Endianness : Big
Codec ID : A_DTS
Duration : 1 h 25 min
Bit rate mode : Constant
Bit rate : 768 kb/s
Channel(s) : 2 channels
Channel positions : Front: L R
Sampling rate : 48.0 kHz
Frame rate : 93.750 FPS (512 SPF)
Bit depth : 24 bits
Compression mode : Lossy
Stream size : 470 MiB (2%)
Title : Original 2.0 | Commentary
Language : French
Default : No
Forced : No

Text #1
ID : 8
Format : PGS
Muxing mode : zlib
Codec ID : S_HDMV/PGS
Codec ID/Info : Picture based subtitle format used on BDs/HD-DVDs
Duration : 1 h 25 min
Bit rate : 22.0 kb/s
Count of elements : 2516
Stream size : 13.4 MiB (0%)
Title : Fre (SDH Colored)
Language : French
Default : No
Forced : No

Text #2
ID : 9
Format : UTF-8
Codec ID : S_TEXT/UTF8
Codec ID/Info : UTF-8 Plain Text
Duration : 1 h 25 min
Bit rate : 37 b/s
Count of elements : 1258
Stream size : 23.4 KiB (0%)
Title : Fre (Full)
Language : French
Default : No
Forced : No

Text #3
ID : 10
Format : UTF-8
Codec ID : S_TEXT/UTF8
Codec ID/Info : UTF-8 Plain Text
Duration : 1 h 22 min
Bit rate : 26 b/s
Count of elements : 396
Stream size : 16.2 KiB (0%)
Title : Eng (Full)
Language : English
Default : No
Forced : No
Скріншоти
Джерело: &
Подяка за українські доріжки - ТВ+: igor911 - зведення, Sando7 - запис з ТБ; 1+1: rooster - зведення, Technomate - запис з ТБ; СТБ: rooster; українізований постер (під спойлером) - rooster; фільмографії акторів та інформація про озвучення - Віктор (всі - Гуртом)
Особиста оцінка: 10 - без зайвих вагань рекомендую всім!



Золотий реліз (завантажене не впливає на рейтинг)
 Трекер:    Зареєстрований   

Завантажити / скачати фільм українською



відео для новачків



 Зареєстрований:   2019-07-06 22:56
 Розмір:   19.35 GB 
 Оцінка фільму:   10/10 (Голосів: 4)
   
Oleksa9 
VIP


З нами з: 17.05.12
Востаннє: 29.09.20
Повідомлень: 412

2019-10-12 15:15  
ТВ+:
відміняється -> скасовується
по місцях -> за місцями
трошки -> трішки
щьоб -> аби
почєкаю -> зачекаю
все в порядку -> усе гаразд
виключити -> вимкнути
чього, щьо, чюдова, щьось, чьотири, якщьо, нечюю, кращє, хочь, струмочька, чясу, надобранічь, пощястило, знущяєшся, дівчятам, горщік, смачьного, знущянь, знущятися

Ваш часовий пояс: GMT + 2 Години

Нова тема   Відповісти