Геркулес: Легендарні Подорожі (Сезон 5) / Hercules: The Legendary Journeys (Season 5) (1998-1999) (Upscale)-AVC

Нові коментарі

Нова тема   Відповісти
Автор Повідомлення
Doctor_Petrarka 
Новенький


З нами з: 20.07.15
Востаннє: 28.09.20
Повідомлень: 1

2019-07-06 22:24  
Геркулес: Легендарні Подорожі (Сезон 5) / Hercules: The Legendary Journeys (Season 5) (1998-1999) (Upscale)-AVC



Жанр: екшн, пригодницький, драма, фентезі
Країна: США, Нова Зеландія



Режисер: Брюс Кемпбелл, Charlie Haskell, Чарльз Сиберт
Актори: Кевін Сорбо, Майкл Герст, Кевін Сміт, Роберт Требор, Джеффрі Томас, Пол Норелл, Брюс Кемпбелл, Олександра Тайдінгс, Лідді Голловей, Тамара Горська

Сюжет:
Ти чув коли-небудь про дванадцять подвигів Геркулеса? Насправді їх було 103 .... і всі вони записані на плівку!


Тривалість: 1 серія: 42:00 (цілком серій: 22)
Якість: (Upscale) AVC
Відео:
кодек:
розмір кадру: 854 х 568
бітрейт: ~1300 кб/с [crf=27]

Аудіо:
мова: українська
переклад: багатоголосий закадровий
кодек: 2.0
бітрейт: 128 кб/с

Джерело озвучення:
Info
Код:
General
Complete name               : Геркулес Легендарні подорожі (1999) 5 сезон\Серія 13.mp4
Format                      : MPEG-4
Format profile              : Base Media
Codec ID                    : isom (isom)
File size                   : 448 MiB
Duration                    : 42 min 56 s
Overall bit rate mode       : Variable
Overall bit rate            : 1 458 kb/s
Encoded date                : UTC 2018-09-24 13:04:58
Tagged date                 : UTC 2018-09-24 13:04:58

Video
ID                          : 1
Format                      : AVC
Format/Info                 : Advanced Video Codec
Format profile              : [email protected]
Format settings             : CABAC / 4 Ref Frames
Format settings, CABAC      : Yes
Format settings, Reference  : 4 frames
Codec ID                    : avc1
Codec ID/Info               : Advanced Video Coding
Duration                    : 42 min 55 s
Bit rate                    : 1 326 kb/s
Maximum bit rate            : 4 673 kb/s
Width                       : 854 pixels
Height                      : 568 pixels
Display aspect ratio        : 4:3
Original display aspect rat : 4:3
Frame rate mode             : Constant
Frame rate                  : 29.970 (30000/1001) FPS
Color space                 : YUV
Chroma subsampling          : 4:2:0
Bit depth                   : 8 bits
Scan type                   : Progressive
Bits/(Pixel*Frame)          : 0.091
Stream size                 : 407 MiB (91%)
Writing library             : core 132
Encoding settings           : cabac=1 / ref=1 / deblock=1:0:0 / analyse=0x1:0x1 / me=dia / subme=1 / psy=1 / psy_rd=1.00:0.00 / mixed_ref=0 / me_range=16 / chroma_me=1 / trellis=0 / 8x8dct=0 / cqm=0 / deadzone=21,11 / fast_pskip=1 / chroma_qp_offset=0 / threads=12 / lookahead_threads=2 / sliced_threads=0 / nr=0 / decimate=1 / interlaced=0 / bluray_compat=0 / constrained_intra=0 / bframes=3 / b_pyramid=2 / b_adapt=1 / b_bias=0 / direct=1 / weightb=1 / open_gop=0 / weightp=1 / keyint=24 / keyint_min=2 / scenecut=40 / intra_refresh=0 / rc=crf / mbtree=0 / crf=27.0 / qcomp=0.60 / qpmin=0 / qpmax=69 / qpstep=4 / ip_ratio=1.40 / pb_ratio=1.30 / aq=1:1.00
Tagged date                 : UTC 2018-09-24 13:04:59
Codec configuration box     : avcC

Audio
ID                          : 2
Format                      : LC
Format/Info                 : Advanced Audio Codec Low Complexity
Codec ID                    : mp4a-40-2
Duration                    : 42 min 56 s
Bit rate mode               : Variable
Bit rate                    : 128 kb/s
Maximum bit rate            : 160 kb/s
Channel(s)                  : 2 channels
Channel layout              : L R
Sampling rate               : 48.0 kHz
Frame rate                  : 46.875 FPS (1024 SPF)
Compression mode            : Lossy
Stream size                 : 39.4 MiB (9%)
Encoded date                : UTC 2018-09-24 13:04:59
Tagged date                 : UTC 2018-09-24 13:04:59
Скріншоти



Джерело: &
Особиста оцінка: 6 - третій сорт - не брак


Срібний реліз (на рейтинг впливає 50% завантаженого)
 Трекер:    Зареєстрований   

Завантажити / скачати серіал українською



відео для новачків



 Зареєстрований:   2019-07-08 21:57
 Розмір:   8.7 GB 
 Оцінка серіалу:   7/10 (Голосів: 5)
   
Ваш часовий пояс: GMT + 2 Години

Нова тема   Відповісти