Плейбой під прикриттям / Nicky Larson et le parfum de Cupidon (2018) Remux 1080p Ukr/Fre | Sub Fre

Нові коментарі

Нова тема   Відповісти
Автор Повідомлення
Anonymous 







2019-07-05 21:06  
Плейбой під прикриттям / Nicky Larson et le parfum de Cupidon (2018) Remux 1080p Ukr/Fre | Sub Fre

Плейбой під прикриттям / Nicky Larson et le parfum de Cupidon (2018) Remux 1080p Ukr/Fre | Sub Fre


Жанр: бойовик, комедія, кримінальний
Країна: Франція



Кінокомпанія: Axel Films, Baf Prod, M6 Films
Режисер: Філіп Лашо
Актори: Філіп Лашо, Елоді Фонтан, Тарек Буда, Жюльєн Арруті, Дідьє Бурдон, Памела Андерсон, Жерар Жюньо, Камел Генфу, Одрі Ламі, Шанталь Ладезу

Сюжет:
Нікі Ларсон – супердетектив та найкрутіший тілоохоронець у світі. На нього чекає небезпечна місія – знайти викрадений парфюм, що робить привабливим для протилежної статі будь-кого, хто ним користується...


Тривалість: 01:31:15
Якість: Remux 1080p
Відео:
кодек:
розмір кадру: 1920x1080
бітрейт: 25,1 Мб/с

Аудіо # 1:
мова: українська
переклад: професійний дубльований
кодек: 5.1
бітрейт: 384 кб/с

Аудіо # 2:
мова: французька
переклад: оригінал
кодек: -HD MA 5.1
бітрейт: 2126 кб/с

Джерело озвучення:


Субтитри:
мова: французька
тип: програмні (м'які)
формат: *.srt
Info
Код:
General
Complete name                            : Nicky Larson et le parfum de Cupidon (2019) Remux [UKR_FRE] [ViDeO_Hurtom].
Format                                   :
Format version                           : Version 4
File size                                : 17.6 GiB
Duration                                 : 1 h 31 min
Overall bit rate mode                    : Variable
Overall bit rate                         : 27.6 Mb/s
Movie name                               : Nicky Larson et le parfum de Cupidon (2019) Remux [UKR_FRE] [ViDeO_Hurtom]
Encoded date                             : UTC 2019-07-05 18:17:22
Writing application                      : v30.1.0 ('Forever And More') 64-bit
Writing library                          : libebml v1.3.6 + v1.4.9

Video
ID                                       : 1
Format                                   : AVC
Format/Info                              : Advanced Video Codec
Format profile                           : [email protected]
Format settings                          : CABAC / 4 Ref Frames
Format settings, CABAC                   : Yes
Format settings, RefFrames               : 4 frames
Format settings, GOP                     : M=3, N=24
Codec ID                                 : V_MPEG4/ISO/AVC
Duration                                 : 1 h 31 min
Bit rate mode                            : Variable
Bit rate                                 : 25.1 Mb/s
Maximum bit rate                         : 30.0 Mb/s
Width                                    : 1 920 pixels
Height                                   : 1 080 pixels
Display aspect ratio                     : 16:9
Frame rate mode                          : Constant
Frame rate                               : 24.000 FPS
Color space                              : YUV
Chroma subsampling                       : 4:2:0
Bit depth                                : 8 bits
Scan type                                : Progressive
Bits/(Pixel*Frame)                       : 0.505
Stream size                              : 16.0 GiB (91%)
Language                                 : French
Default                                  : Yes
Forced                                   : No
Color range                              : Limited
Color primaries                          : BT.709
Transfer characteristics                 : BT.709
Matrix coefficients                      : BT.709

Audio #1
ID                                       : 2
Format                                   : AC-3
Format/Info                              : Audio Coding 3
Commercial name                          : Dolby Digital
Codec ID                                 : A_AC3
Duration                                 : 1 h 31 min
Bit rate mode                            : Constant
Bit rate                                 : 384 kb/s
Channel(s)                               : 6 channels
Channel layout                           : L R C LFE Ls Rs
Sampling rate                            : 48.0 kHz
Frame rate                               : 31.250 FPS (1536 SPF)
Bit depth                                : 16 bits
Compression mode                         : Lossy
Stream size                              : 251 MiB (1%)
Title                                    : , 6 ch, 384 Кбт/с
Language                                 : Ukrainian
Service kind                             : Complete Main
Default                                  : Yes
Forced                                   : No

Audio #2
ID                                       : 3
Format                                   : XLL
Format/Info                              : Digital Theater Systems
Commercial name                          : -HD Master Audio
Codec ID                                 : A_DTS
Duration                                 : 1 h 31 min
Bit rate mode                            : Variable
Bit rate                                 : 2 126 kb/s
Channel(s)                               : 6 channels
Channel layout                           : C L R Ls Rs LFE
Sampling rate                            : 48.0 kHz
Frame rate                               : 93.750 FPS (512 SPF)
Bit depth                                : 16 bits
Compression mode                         : Lossless
Stream size                              : 1.36 GiB (8%)
Title                                    : -HD MA, 6 ch, 2126 Кбт/с
Language                                 : French
Default                                  : No
Forced                                   : No

Text
ID                                       : 4
Format                                   : UTF-8
Codec ID                                 : S_TEXT/UTF8
Codec ID/Info                            : UTF-8 Plain Text
Duration                                 : 1 h 30 min
Bit rate                                 : 61 b/s
Count of elements                        : 1743
Stream size                              : 40.5 KiB (0%)
Title                                    : Full
Language                                 : French
Default                                  : No
Forced                                   : No

Menu
00:00:00.000                             : en:Chapter 01
00:06:35.542                             : en:Chapter 02
00:17:02.208                             : en:Chapter 03
00:26:28.583                             : en:Chapter 04
00:33:25.500                             : en:Chapter 05
00:40:12.375                             : en:Chapter 06
00:48:23.792                             : en:Chapter 07
00:53:50.375                             : en:Chapter 08
01:04:50.708                             : en:Chapter 09
01:09:02.292                             : en:Chapter 10
01:20:15.667                             : en:Chapter 11
01:28:28.292                             : en:Chapter 12
Скріншоти






Джерело: &
Особиста оцінка: 0 - не дивився


Золотий реліз (завантажене не впливає на рейтинг)
 Трекер:    Зареєстрований   

Завантажити / скачати фільм українською



відео для новачків



 Зареєстрований:   2019-07-05 21:38
 Розмір:   17.61 GB 
 Оцінка фільму:   8.8/10 (Голосів: 19)
   
ArteMiY 
Свій


З нами з: 08.07.08
Востаннє: 20.09.20
Повідомлень: 81

2019-07-05 21:57  
дякую, давно на нього чекаю, але 1080 то забагато.
Anonymous 







2019-07-05 22:48  
ArteMiY написано:
дякую, давно на нього чекаю, але 1080 то забагато.

Плейбой під прикриттям / Nicky Larson et le parfum de Cupidon (2018)

Oleksa9 
VIP


З нами з: 17.05.12
Востаннє: 21.09.20
Повідомлень: 412

2019-10-19 13:42  
включив -> увімкнув
мамонт -> мамут
"звалив" -> забрався
удачі -> хай щастить
вийшло -> вдалося
чьорт -> дідько
пробачьте -> даруйте, перепрошую тощо
очях, зручьно, хочю, якщьо, щє, щьо, "лажа", сорочька

O_omarella! 
Поважний учасник


З нами з: 14.06.13
Востаннє: 18.08.20
Повідомлень: 194

2020-02-05 23:06  
Мені не зайшов, шлак якийсь.
MakRA 
VIP


З нами з: 11.11.18
Востаннє: 22.09.20
Повідомлень: 1119

2020-02-06 01:55  
Не скажу, що шедевр, але подивилися з дружиною через пару днів після того, як реліз з"явився на толоці. Кумедні моменти були і немало. Подекуди, правда, доходило до абсурду, але загалом фільм сподобався.
3a6a6axyc 
Новенький


З нами з: 26.11.16
Востаннє: 21.09.20
Повідомлень: 18

2020-02-08 22:33  
роздача буде , чи як ?

Додано через 5 хвилин 12 секунд:

Oleksa9

особливо дивно чути від чоловіків слово ... лажа ))

.Rusnet8 
Свій


З нами з: 19.07.10
Востаннє: 18.09.20
Повідомлень: 121

2020-03-11 12:28  
Низькопробна комедія
Ваш часовий пояс: GMT + 2 Години

Нова тема   Відповісти