Американський кат / American Hangman (2019) 1080p Eng | Sub Ukr/Eng

Нові коментарі

Нова тема   Відповісти
Автор Повідомлення
Anonymous 







2019-07-05 18:00  
Американський кат / American Hangman (2019) 1080p Eng | Sub Ukr/Eng

Американський кат / American Hangman (2019) 1080p Eng | Sub Ukr/Eng


Жанр: трилер, драма, детектив
Країна: Канада



Кінокомпанія: Hangman Justice Productions
Режисер: Вілсон Конібер / Wilson Coneybeare
Актори: Дональд Сазерленд / Donald Sutherland, Вінсент Картайзер / Vincent Kartheiser, Олівер Денніс / Oliver Dennis, Пол Браунштейн / Paul Braunstein, Пол Амато / Paul Amato, Метт Барам / Matt Baram, Ден Бірн / Dan Beirne, Джоенн Боланд / Joanne Boland, Александр Краузер / Alexander Crowther, Чарлі Еббс / Charlie Ebbs та інші

Сюжет:
Суддю Олівера Стрейта захоплює в заручники жорстокий викрадач, після того як той проводить судове засідання у недбало розслідуваній кримінальній справі. Суддя змушений у прямому ефірі в соціальних мережах очікувати вирок життя чи смерті від глядачів та викрадача, які грають роль судді та присяжних у його справі.
Трейлер:

Вікова категорія: 16+

Тривалість: 01:39:07
Якість: 1080p
Відео:
кодек:
розмір кадру: 1920 х 796
бітрейт: 4545 кб/с

Аудіо:
мова: англійська
переклад: оригінал
кодек: 5.1
бітрейт: 384 кб/с

Субтитри # 1:
мова: українська
тип: програмні (м'які)
формат: *.srt
переклад: Олена Скібіцька

Субтитри # 2:
мова: англійська
тип: програмні (м'які)
формат: *.srt

Збережено оригінальні розділи
Info
Код:

Complete name               : American Hangman (2019) [Eng sub.Ukr,Eng] 1080p [Hurtom].
Format                      :
Format version              : Version 4
File size                   : 3.41 GiB
Duration                    : 1 h 39 min
Overall bit rate            : 4 932 kb/s
Movie name                  : Американський кат / American Hangman (2019) [Eng sub.Ukr,Eng] 1080p [Hurtom]
Cover                       : Yes
Attachments                 : cover.jpg

Video
ID                          : 1
Format                      : AVC
Format/Info                 : Advanced Video Codec
Format profile              : [email protected]
Format settings             : CABAC / 5 Ref Frames
Format settings, CABAC      : Yes
Format settings, Reference  : 5 frames
Codec ID                    : V_MPEG4/ISO/AVC
Duration                    : 1 h 39 min
Bit rate                    : 4 545 kb/s
Width                       : 1 920 pixels
Height                      : 796 pixels
Display aspect ratio        : 2.40:1
Frame rate mode             : Constant
Frame rate                  : 23.976 FPS
Color space                 : YUV
Chroma subsampling          : 4:2:0
Bit depth                   : 8 bits
Scan type                   : Progressive
Bits/(Pixel*Frame)          : 0.124
Stream size                 : 3.15 GiB (92%)
Title                       : Американський кат / American Hangman (2019) 1080p [iTunes]
Language                    : English
Default                     : Yes
Forced                      : No
Color range                 : Limited
Color primaries             : BT.709
Transfer characteristics    : BT.709
Matrix coefficients         : BT.709

Audio
ID                          : 2
Format                      : AC-3
Format/Info                 : Audio Coding 3
Commercial name             : Dolby Digital
Codec ID                    : A_AC3
Duration                    : 1 h 39 min
Bit rate mode               : Constant
Bit rate                    : 384 kb/s
Channel(s)                  : 6 channels
Channel layout              : L R C LFE Ls Rs
Sampling rate               : 48.0 kHz
Frame rate                  : 31.250 FPS (1536 SPF)
Bit depth                   : 16 bits
Compression mode            : Lossy
Delay relative to video     : -42 ms
Stream size                 : 272 MiB (8%)
Title                       : Original, 5.1 384 Kbps
Language                    : English
Service kind                : Complete Main
Default                     : Yes
Forced                      : No

Text #1
ID                          : 3
Format                      : UTF-8
Codec ID                    : S_TEXT/UTF8
Codec ID/Info               : UTF-8 Plain Text
Duration                    : 1 h 36 min
Bit rate                    : 125 b/s
Count of elements           : 1501
Stream size                 : 88.3 KiB (0%)
Title                       : Ukr full [iTunes]
Language                    : Ukrainian
Default                     : Yes
Forced                      : Yes

Text #2
ID                          : 4
Format                      : UTF-8
Codec ID                    : S_TEXT/UTF8
Codec ID/Info               : UTF-8 Plain Text
Duration                    : 1 h 34 min
Bit rate                    : 81 b/s
Count of elements           : 1673
Stream size                 : 56.2 KiB (0%)
Language                    : English
Default                     : No
Forced                      : No

Menu
00:00:00.000                : en:1
00:06:04.000                : en:2
00:12:40.000                : en:3
00:19:23.000                : en:4
00:25:03.000                : en:5
00:31:20.000                : en:6
00:38:20.000                : en:7
00:44:35.000                : en:8
00:50:44.000                : en:9
00:57:12.000                : en:10
01:03:23.000                : en:11
01:09:26.000                : en:12
01:16:12.000                : en:13
01:22:15.000                : en:14
01:28:05.000                : en:15
01:35:00.000                : en:16
Скріншоти
Джерело: &


 Трекер:    Зареєстрований   

Завантажити / скачати фільм українською



відео для новачків



 Зареєстрований:   2019-07-05 21:14
 Розмір:   3.41 GB 
 Оцінка фільму:   10/10 (Голосів: 7)
 ЗАЛИШАЙТЕСЬ ЯКОМОГА ДОВШЕ НА РОЗДАЧІ! ЗАВАНТАЖИВ САМ - ДАЙ ЗАВАНТАЖИТИ ІНШИМ!
   
Ваш часовий пояс: GMT + 2 Години

Нова тема   Відповісти