Посередник (Перемовник) / The Negotiator (1998) 720p 2xUkr/Eng | Sub Eng

Нові коментарі

Нова тема   Відповісти
Автор Повідомлення
Anonymous 







2019-07-05 14:36  
Посередник (Перемовник) / The Negotiator (1998) 720p 2xUkr/Eng | Sub Eng

Посередник (Перемовник) / The Negotiator (1998) 720p 2xUkr/Eng | Sub Eng


Жанр: кримінальний, трилер, драма
Країна: Німеччина, США



Кінокомпанія: 20th Century Fox
Режисер: Фелікс Гері Грей
Актори: Семюель Л. Джексон, Кевін Спейсі, Девід Морз, Рон Ріфкін, Джон Спенсер, Д. Т. Уолш, Пол Джіаматті

Сюжет:
Перемовник Денні Роман - один з найкращих у своїй професії. Проте коли його самого звинувачують у вбивстві та не залишають іншого вибору, поліцейський сам бере заручників. Він барикадується на 20-му поверсі хмарочосу у Чикаго, щоб дізнатися правду про те, що сталося. І розмовляти він хоче лише з незнайомою людиною - не менш професійним Крісом Себіаном.


Тривалість: 02:19:34
Якість: 720p-mini
Відео:
кодек:
розмір кадру: 1216 х 512
бітрейт: 2514 кб/с

Аудіо # 1:
мова: українська
переклад: двоголосий закадровий
кодек: 5.1
бітрейт: 384 кб/с

Аудіо # 2:
мова: українська
переклад: багатоголосий закадровий
кодек: 2.0
бітрейт: 192 кб/с

Аудіо # 3:
мова: англійська
переклад: оригінал
кодек: 5.1
бітрейт: 448 кб/с

Субтитри:
мова: англійська
тип: пререндерні
формат: *.srt
Info
General
Unique ID : 246585742537610052460168215129725462864 (0xB982AFC12A3F74C091A3FBF2B751E950)
Format :
Format version : Version 4
File size : 3.45 GiB
Duration : 2 h 19 min
Overall bit rate : 3 541 kb/s
Encoded date : UTC 2019-07-05 11:29:38
Writing application : v6.1.0 ('Old Devil') built on Mar 4 2013 09:10:42
Writing library : libebml v1.3.0 + v1.4.0

Video
ID : 1
Format : AVC
Format/Info : Advanced Video Codec
Format profile : [email protected]
Format settings : CABAC / 12 Ref Frames
Format settings, CABAC : Yes
Format settings, RefFrames : 12 frames
Codec ID : V_MPEG4/ISO/AVC
Duration : 2 h 19 min
Bit rate : 2 447 kb/s
Width : 1 216 pixels
Height : 512 pixels
Display aspect ratio : 2.40:1
Frame rate mode : Constant
Frame rate : 23.976 FPS
Color space : YUV
Chroma subsampling : 4:2:0
Bit depth : 8 bits
Scan type : Progressive
Bits/(Pixel*Frame) : 0.164
Stream size : 2.39 GiB (69%)
Writing library : core 78 r1310kMod ec46ace
Encoding settings : cabac=1 / ref=12 / deblock=1:0:0 / analyse=0x3:0x133 / me=umh / subme=10 / psy=1 / psy_rd=1.0:0.8 / mixed_ref=1 / me_range=32 / chroma_me=1 / trellis=2 / 8x8dct=1 / cqm=0 / deadzone=21,11 / chroma_qp_offset=-4 / threads=6 / nr=0 / decimate=1 / mbaff=0 / constrained_intra=0 / bframes=8 / b_pyramid=0 / b_adapt=2 / b_bias=0 / direct=3 / wpredb=1 / keyint=250 / keyint_min=25 / scenecut=40 / rc=crf / mbtree=0 / crf=20.2000 / qcomp=0.60 / qpmin=10 / qpmax=51 / qpstep=4 / ip_ratio=1.40 / pb_ratio=1.30 / aq=1:1.00
Language : English
Default : Yes
Forced : No
Color range : Limited
Matrix coefficients : BT.709

Audio #1
ID : 2
Format : AC-3
Format/Info : Audio Coding 3
Commercial name : Dolby Digital
Codec ID : A_AC3
Duration : 2 h 19 min
Bit rate mode : Constant
Bit rate : 384 kb/s
Channel(s) : 6 channels
Channel layout : L R C LFE Ls Rs
Sampling rate : 48.0 kHz
Frame rate : 31.250 FPS (1536 SPF)
Bit depth : 16 bits
Compression mode : Lossy
Stream size : 383 MiB (11%)
Title : UKR (2+2)
Language : Ukrainian
Service kind : Complete Main
Default : Yes
Forced : Yes

Audio #2
ID : 3
Format : AC-3
Format/Info : Audio Coding 3
Commercial name : Dolby Digital
Codec ID : A_AC3
Duration : 2 h 19 min
Bit rate mode : Constant
Bit rate : 192 kb/s
Channel(s) : 2 channels
Channel layout : L R
Sampling rate : 48.0 kHz
Frame rate : 31.250 FPS (1536 SPF)
Bit depth : 16 bits
Compression mode : Lossy
Stream size : 192 MiB (5%)
Title : UKR (ICTV)
Language : Ukrainian
Service kind : Complete Main
Default : No
Forced : No

Audio #3
ID : 4
Format : AC-3
Format/Info : Audio Coding 3
Commercial name : Dolby Digital
Codec ID : A_AC3
Duration : 2 h 19 min
Bit rate mode : Constant
Bit rate : 448 kb/s
Channel(s) : 6 channels
Channel layout : L R C LFE Ls Rs
Sampling rate : 48.0 kHz
Frame rate : 31.250 FPS (1536 SPF)
Bit depth : 16 bits
Compression mode : Lossy
Stream size : 447 MiB (13%)
Title : ENG
Language : English
Service kind : Complete Main
Default : No
Forced : No

Text
ID : 5
Format : UTF-8
Codec ID : S_TEXT/UTF8
Codec ID/Info : UTF-8 Plain Text
Title : ENG
Language : English
Default : No
Forced : No
Скріншоти







За українські доріжки подяка п.: bodia87, torrents.net.ua
Особиста подяка пану denixx за надану матеріальну допомогу на підтримку цього і майбутніх релізів.
Джерело:


Срібний реліз (на рейтинг впливає 50% завантаженого)
 Трекер:    Зареєстрований   

Завантажити / скачати фільм українською



відео для новачків



 Зареєстрований:   2019-07-05 14:36
 Розмір:   3.45 GB 
 Оцінка фільму:   9.7/10 (Голосів: 11)
   
bot 
робот


З нами з: 30.09.07
Востаннє: 26.05.05
Повідомлень: 25575

2019-07-14 19:01  
Тему перенесено з Фільми до форуму Фільми в HD


Dark Invader

Dark Invader 
Модератор відео


З нами з: 06.01.11
Востаннє: 23.09.20
Повідомлень: 2941

2019-07-14 19:02  
Додайте звіт Info.
nendza 
Новенький


З нами з: 02.06.18
Востаннє: 22.09.20
Повідомлень: 8

2019-07-18 09:29  
Цілком вартий перегляду фільм. Рівномірно наповнена оповідь, нема води, як на мене. В міру екшон.
Anonymous 







2019-07-23 14:25  
Dark Invader
Додав звіт Info

Akelich 
Новенький


З нами з: 19.08.17
Востаннє: 19.09.20
Повідомлень: 3

2020-07-07 20:51  
Один з найкращих фільмів з тих, що бачив у своєму житті
Ваш часовий пояс: GMT + 2 Години

Нова тема   Відповісти