Після / After (2019) 1080p H.265 Ukr/Eng | Sub Eng

Нові коментарі

Нова тема   Відповісти
Автор Повідомлення
Anonymous 







2019-07-05 13:55  
Після / After (2019) 1080p H.265 Ukr/Eng | Sub Eng

Після / After (2019) 1080p H.265 Ukr/Eng | Sub Eng


Жанр: драма, романтичний
Країна: США
Кінокомпанія: Offspring Entertainment, Voltage Pictures
Режисер: Дженні Ґейдж
Актори: Хіро Файнс-Тіффін, Селма Блер, Джозефін Ленгфорд, Дженніфер Білз, Пітер Галлахер, Медоу Вільямс, Семюел Ларсен, Інанна Саркіс, Піа Міа, Ділан Арнольд

Сюжет:
Тесса Янг – молода дівчина, старанна студентка з хорошої сім'ї, нічого поганого про неї сказати не можна. Хардін Скотт – красивий бунтар, від якого всі представниці протилежної статі просто втрачають розум. Ці двоє абсолютно різні, але як раз протилежності й люблять притягуватися. Вони познайомилися в коледжі – саме в ці роки потрібно насолоджуватися молодістю, свободою та можливістю відриватися з іншими студентами. Спочатку Тесса не хотіла і близько підпускати Хардіна, але час брав своє. Тепер вона не уявляє свого життя без хлопця. Але чи Тесса так добре знає свого обранця? Чи так усе буде просто у їх стосунках?

Тривалість: 01:46:04
Якість:
Відео:
кодек: H.265 (HEVC)
розмір кадру: 1920 x 800
бітрейт: 6 779 кб/с
бітова глибина: 10 біт
Увага! Перед завантаженням переконайтесь, що ваш пристрій відтворення (та/або ПЗ) підтримує H.265 (HEVC)

Аудіо # 1:
мова: українська
переклад: професійний дубльований
кодек: AC-3 5.1
бітрейт: 384 кб/с

Аудіо # 2:
мова: англійська
переклад: оригінал
кодек: 5.1
бітрейт: 1510 кб/с

Субтитри # 1-2: (Full, SDH)
мова: англійська,
тип: програмні (м'які)
формат: *.srt


Info
Код:
General
Unique ID                                : 212961864527704638737275433111278360244 (0xA036F693A97D9E69CE649288A6C496B4)
Complete name                            : After (2019) 1080p H.265 [UKR_ENG] [Hurtom].
Format                                   :
Format version                           : Version 4 / Version 2
File size                                : 6.43 GiB
Duration                                 : 1 h 46 min
Overall bit rate                         : 8 675 kb/s
Movie name                               : Після / After (2019)
Encoded date                             : UTC 2019-07-04 13:15:33
Writing application                      : v20.0.0 ('I Am The Sun') 64-bit
Writing library                          : libebml v1.3.5 + v1.4.8
Cover                                    : Yes
Attachments                              : cover.jpg

Video
ID                                       : 1
Format                                   : HEVC
Format/Info                              : High Efficiency Video Coding
Format profile                           : Main [email protected]@High
Codec ID                                 : V_MPEGH/ISO/HEVC
Duration                                 : 1 h 46 min
Bit rate                                 : 6 779 kb/s
Width                                    : 1 920 pixels
Height                                   : 800 pixels
Display aspect ratio                     : 2.40:1
Frame rate mode                          : Constant
Frame rate                               : 23.976 (24000/1001) FPS
Color space                              : YUV
Chroma subsampling                       : 4:2:0
Bit depth                                : 10 bits
Bits/(Pixel*Frame)                       : 0.184
Stream size                              : 5.02 GiB (78%)
Title                                    : Після / After (2019)
Language                                 : English
Default                                  : Yes
Forced                                   : No
Color range                              : Limited
Color primaries                          : BT.709
Transfer characteristics                 : BT.709
Matrix coefficients                      : BT.709

Audio #1
ID                                       : 2
Format                                   : AC-3
Format/Info                              : Audio Coding 3
Codec ID                                 : A_AC3
Duration                                 : 1 h 46 min
Bit rate mode                            : Constant
Bit rate                                 : 384 kb/s
Channel(s)                               : 6 channels
Channel positions                        : Front: L C R, Side: L R, LFE
Sampling rate                            : 48.0 kHz
Frame rate                               : 31.250 FPS (1536 SPF)
Bit depth                                : 16 bits
Compression mode                         : Lossy
Stream size                              : 291 MiB (4%)
Title                                    : ПД - іTunеs, 5.1 384 kbps
Language                                 : Ukrainian
Service kind                             : Complete Main
Default                                  : Yes
Forced                                   : Yes

Audio #2
ID                                       : 3
Format                                   :
Format/Info                              : Digital Theater Systems
Codec ID                                 : A_DTS
Duration                                 : 1 h 46 min
Bit rate mode                            : Constant
Bit rate                                 : 1 509 kb/s
Channel(s)                               : 6 channels
Channel positions                        : Front: L C R, Side: L R, LFE
Sampling rate                            : 48.0 kHz
Frame rate                               : 93.750 FPS (512 SPF)
Bit depth                                : 24 bits
Compression mode                         : Lossy
Stream size                              : 1.12 GiB (17%)
Title                                    : Original, 5.1 1509 kbps
Language                                 : English
Default                                  : No
Forced                                   : No

Text #1
ID                                       : 4
Format                                   : UTF-8
Codec ID                                 : S_TEXT/UTF8
Codec ID/Info                            : UTF-8 Plain Text
Duration                                 : 1 h 37 min
Bit rate                                 : 34 b/s
Count of elements                        : 947
Stream size                              : 24.8 KiB (0%)
Title                                    : Full
Language                                 : English
Default                                  : No
Forced                                   : No

Text #2
ID                                       : 5
Format                                   : UTF-8
Codec ID                                 : S_TEXT/UTF8
Codec ID/Info                            : UTF-8 Plain Text
Duration                                 : 1 h 37 min
Bit rate                                 : 37 b/s
Count of elements                        : 1055
Stream size                              : 27.1 KiB (0%)
Title                                    : SDH
Language                                 : English
Default                                  : No
Forced                                   : No

Menu
00:00:00.000                             : en:00:00:00.000
00:05:59.067                             : en:00:05:59.067
00:10:00.350                             : en:00:10:00.350
00:14:28.534                             : en:00:14:28.534
00:23:08.178                             : en:00:23:08.178
00:28:13.150                             : en:00:28:13.150
00:33:22.083                             : en:00:33:22.083
00:38:41.277                             : en:00:38:41.277
00:44:33.629                             : en:00:44:33.629
00:48:21.982                             : en:00:48:21.982
00:53:24.368                             : en:00:53:24.368
00:58:40.267                             : en:00:58:40.267
01:05:25.755                             : en:01:05:25.755
01:10:28.891                             : en:01:10:28.891
01:15:44.081                             : en:01:15:44.081
01:20:31.785                             : en:01:20:31.785
01:24:44.705                             : en:01:24:44.705
01:31:11.549                             : en:01:31:11.549
01:36:13.935                             : en:01:36:13.935
01:39:33.217                             : en:01:39:33.217
Світлини




Джерело: &
Особиста оцінка: 0 - не дивився


 Трекер:    Зареєстрований   

Завантажити / скачати фільм українською



відео для новачків



 Зареєстрований:   2019-07-05 21:04
 Розмір:   6.43 GB 
 Оцінка фільму:   10/10 (Голосів: 5)
   
Інші релізи
   Після / After (2019) antik_2008  10 / 0   1.44 GB   2019-07-05 21:14 
   Після / After (2019) 1080p Ukr/Eng | Sub Eng antik_2008  4 / 0   9.75 GB   2019-07-05 20:04 
   Після / After (2019) Remux 1080p Ukr/Eng | Sub Eng antik_2008  3 / 0   27.36 GB   2019-07-05 19:50 
   Після / After (2019) BDRp 720p Ukr/Eng | Sub Eng 11FrYkT  3 / 0   4.83 GB   2019-07-05 17:32 
   Після / After (2019) AVC Ukr/Eng | Sub Eng 11FrYkT  13 / 0   1.94 GB   2019-07-05 15:56 
antik_2008 
Релізер і модератор відео


З нами з: 20.10.08
Востаннє: 20.09.20
Повідомлень: 4133

2019-07-05 18:39  
рассінхрон є с 15-18 хв. *?
Anonymous 







2019-07-05 21:04  
Фікс доріжки.
Ваш часовий пояс: GMT + 2 Години

Нова тема   Відповісти