Хулігани Зеленої вулиці / Green Street Hooligans [Open Matte] (2005) Remux 1080p 2xUkr/Eng | Sub Eng

Нові коментарі

Нова тема   Відповісти
Автор Повідомлення
Anonymous 







2019-07-05 10:26  
Хулігани Зеленої вулиці / Green Street Hooligans [Open Matte] (2005) Remux 1080p 2xUkr/Eng | Sub Eng



Жанр: кримінальний, драма, спорт
Країна: США, Велика Британія



Кінокомпанія: Baker Street, OddLot Entertainment, Yank Film Finance
Режисер: Лексі Александр
Актори: Елайджа Вуд, Чарлі Ганнем, Клер Форлані, Марк Воррен, Лео Ґреґорі, Джофф Белл, Кіран Б'ю, Генрі Ґудмен, Крістофер Гегір, Теренс Джей

Сюжет:
Студент факультету журналістики Метт Бакнер відрахований з Гарварду за злочин, якого він не скоював. Його багатообіцяюча кар'єра пішла коту під хвіст і він у пошуках притулку біжить до Лондона до своєї заміжньої сестри Шеннон. Її чоловік Стів знайомить Метта з своїм молодшим братом Пітом. Здружившись з Пітом, Метт відкриває для себе світ футбольного фанатизму, а також дізнається таємниці та інтриги футбольної фірми. Піт Дангам і його вірні друзі створили Еліту Зеленої вулиці, групу фанатів клубу Вест-Гем Юнайтед, одну з найжорстокіших лондонських футбольних фірм... Тут він знаходить нових друзів, нові неприємності і опиняється в компанії божевільних футбольних фанатів, готових на вівтар своєї пристрасті кинути будь-яку жертву...


Тривалість: 01:48:53
Якість: Remux 1080p
Відео:
кодек:
розмір кадру: 1920x1080
бітрейт: ~16485 кб/с

Аудіо # 1:
мова: українська
переклад: багатоголосий закадровий
кодек: 2.0
бітрейт: 192 кб/с

Інформація про озвучення
Ролі озвучили: Павло Скороходько, Ярослав Чорненький, Анатолій Зіновенко і Анастасія Зіновенко.

Аудіо # 2:
мова: українська
переклад: багатоголосий закадровий
кодек: 2.0
бітрейт: 192 кб/с

Інформація про озвучення
Ролі озвучили: Дмитро Терещук, Євген Пашин та інші.



Аудіо # 3:
мова: англійська
переклад: оригінал
кодек: -HD Master 5.1
бітрейт: 3495 кб/с

Субтитри (SDH, Full) :
мова: англійська
тип: програмні (м'які)
формат: *.pgs
Info
Код:
General
Complete name                            : Green Street Hooligans [Open Matte] (2005) BDRmux 1080p [Ukr_Eng] [ViDeO_Hurtom].
Format                                   :
Format version                           : Version 4
File size                                : 15.5 GiB
Duration                                 : 1 h 48 min
Overall bit rate mode                    : Variable
Overall bit rate                         : 20.4 Mb/s
Movie name                               : Green Street Hooligans [Open Matte] (2005) BDRmux 1080p [Ukr_Eng] [ViDeO_Hurtom]
Encoded date                             : UTC 2019-07-05 07:09:03
Writing application                      : v30.1.0 ('Forever And More') 64-bit
Writing library                          : libebml v1.3.6 + v1.4.9

Video
ID                                       : 1
Format                                   : AVC
Format/Info                              : Advanced Video Codec
Format profile                           : [email protected]
Format settings                          : CABAC / 4 Ref Frames
Format settings, CABAC                   : Yes
Format settings, RefFrames               : 4 frames
Codec ID                                 : V_MPEG4/ISO/AVC
Duration                                 : 1 h 48 min
Bit rate mode                            : Variable
Bit rate                                 : 16.5 Mb/s
Maximum bit rate                         : 33.0 Mb/s
Width                                    : 1 920 pixels
Height                                   : 1 080 pixels
Display aspect ratio                     : 16:9
Frame rate mode                          : Constant
Frame rate                               : 23.976 (24000/1001) FPS
Color space                              : YUV
Chroma subsampling                       : 4:2:0
Bit depth                                : 8 bits
Scan type                                : Progressive
Bits/(Pixel*Frame)                       : 0.332
Stream size                              : 12.5 GiB (81%)
Default                                  : Yes
Forced                                   : No
Color range                              : Limited
Color primaries                          : BT.709
Transfer characteristics                 : BT.709
Matrix coefficients                      : BT.709

Audio #1
ID                                       : 2
Format                                   : AC-3
Format/Info                              : Audio Coding 3
Commercial name                          : Dolby Digital
Codec ID                                 : A_AC3
Duration                                 : 1 h 48 min
Bit rate mode                            : Constant
Bit rate                                 : 192 kb/s
Channel(s)                               : 2 channels
Channel layout                           : L R
Sampling rate                            : 48.0 kHz
Frame rate                               : 31.250 FPS (1536 SPF)
Bit depth                                : 16 bits
Compression mode                         : Lossy
Stream size                              : 149 MiB (1%)
Title                                    : НЛО.TV | , 2 ch, 192 Кбт/с
Language                                 : Ukrainian
Service kind                             : Complete Main
Default                                  : Yes
Forced                                   : No

Audio #2
ID                                       : 3
Format                                   : AC-3
Format/Info                              : Audio Coding 3
Commercial name                          : Dolby Digital
Codec ID                                 : A_AC3
Duration                                 : 1 h 48 min
Bit rate mode                            : Constant
Bit rate                                 : 192 kb/s
Channel(s)                               : 2 channels
Channel layout                           : L R
Sampling rate                            : 48.0 kHz
Frame rate                               : 31.250 FPS (1536 SPF)
Bit depth                                : 16 bits
Compression mode                         : Lossy
Stream size                              : 149 MiB (1%)
Title                                    : К1 | , 2 ch, 192 Кбт/с
Language                                 : Ukrainian
Service kind                             : Complete Main
Default                                  : No
Forced                                   : No

Audio #3
ID                                       : 4
Format                                   : XLL
Format/Info                              : Digital Theater Systems
Commercial name                          : -HD Master Audio
Codec ID                                 : A_DTS
Duration                                 : 1 h 48 min
Bit rate mode                            : Variable
Bit rate                                 : 3 495 kb/s
Channel(s)                               : 6 channels
Channel layout                           : C L R Ls Rs LFE
Sampling rate                            : 48.0 kHz
Frame rate                               : 93.750 FPS (512 SPF)
Bit depth                                : 24 bits
Compression mode                         : Lossless
Stream size                              : 2.66 GiB (17%)
Title                                    : -HD MAster , 6 ch, 3495 Кбт/с
Language                                 : English
Default                                  : No
Forced                                   : No

Text #1
ID                                       : 5
Format                                   : PGS
Muxing mode                              : zlib
Codec ID                                 : S_HDMV/PGS
Codec ID/Info                            : Picture based subtitle format used on BDs/HD-DVDs
Duration                                 : 1 h 47 min
Bit rate                                 : 33.0 kb/s
Count of elements                        : 2390
Stream size                              : 25.4 MiB (0%)
Title                                    : Full
Language                                 : English
Default                                  : Yes
Forced                                   : No

Text #2
ID                                       : 6
Format                                   : PGS
Muxing mode                              : zlib
Codec ID                                 : S_HDMV/PGS
Codec ID/Info                            : Picture based subtitle format used on BDs/HD-DVDs
Duration                                 : 1 h 47 min
Bit rate                                 : 34.0 kb/s
Count of elements                        : 2456
Stream size                              : 26.2 MiB (0%)
Title                                    : SDH
Language                                 : English
Default                                  : No
Forced                                   : No
Скріншоти







Подяка пану slavik_v_z за запис Аудіо №1 і пану Romario_O за Аудіо №2.

Дякую Gelios за допомогу в створені реліза


Джерело: &


Золотий реліз (завантажене не впливає на рейтинг)
 Трекер:    Зареєстрований   

Завантажити / скачати фільм українською



відео для новачків



 Зареєстрований:   2019-07-05 10:26
 Розмір:   15.5 GB 
 Оцінка фільму:   9.5/10 (Голосів: 8)
   
Anonymous 







2019-08-04 14:42  
Гарний фільм.
Judgment Day 
Свій


З нами з: 05.08.18
Востаннє: 20.09.20
Повідомлень: 133

2020-02-12 19:18  
Уявіть собі, що цей шедевр зняла жінка. Браво! Що тут ще сказати?
Anonymous 







2020-06-02 21:17  
Judgment Day написано:
Уявіть собі, що цей шедевр зняла жінка. Браво! Що тут ще сказати?

ТАк!

це добре

Ваш часовий пояс: GMT + 2 Години

Нова тема   Відповісти