Звір / Beast (2017) Ukr/Eng

Нові коментарі

Нова тема   Відповісти
Автор Повідомлення
Anonymous 







2019-07-05 08:53  
Звір / Beast (2017) Ukr/Eng

Звір / Beast (2017) Ukr/Eng
Альтернативний постер:


Жанр: драма, кримінальний, детектив
Країна: Велика Британія



Кінокомпанія: Agile Films, BFI Film Fund, British Film Institute (BFI)
Режисер: Майкл Пірс / Michael Pearce
Актори: Джессі Баклі / Jessie Buckley, Джонні Флінн / Johnny Flynn, Джеральдін Джеймс / Geraldine James, Шеннон Тарбет / Shannon Tarbet та інші

Сюжет:
У Молл день народження. Їй виповнюється 27 років, але свято не робить її щасливою. Вона живе з батьками на невеликому острові і буквально задихається від нерозуміння і гніту сімейного кола. Молл зустрічає своє перше кохання в неспокійний час, – островом нишпорить серійний вбивця. Паскаль з'являється нізвідки та стає для Молл втіленням свободи. З ним вона вперше відчуває себе живою і позбавляється від всіх невидимих ​​пут. Але щастя Молл не дає спокою її сім'ї та жителям острова. Вони підозрюють Паскаля в причетності до цих звірячих вбивств. Молл доводиться обирати: бути разом з Паскалем проти всіх або залишитися на стороні більшості.

ФЕСТИВАЛІ І ПРЕМІЇ:
Номінації на премію British Independent Film Awards за найкращі британський незалежний фільм, режисуру, сценарій, жіночу роль, кастинг, музику і найбільш багатообіцяючі акторські, продюсерські та сценарні дебюти
Офіційний український трейлер:

Рейтинг MPAA: R - особам до 17 років обов'язкова присутність батьків або дорослого опікуна
Вікова категорія: 16+

Тривалість: 01:46:26
Якість:

Відео:
кодек:
розмір кадру: 720 х 304
бітрейт: 1564 кб/с

Аудіо #1:
мова: українська
озвучення: багатоголосе закадрове | UA:Культура
кодек: 2.0 (стерео)
бітрейт: 192 кб/с

Аудіо #2:
мова: англійська
переклад: оригінал
кодек: 2.0
бітрейт: 192 кб/с
Info
Код:
General
Complete name               : Beast (2017) [Ukr,Eng] [Hurtom].avi
Format                      : AVI
Format/Info                 : Audio Video Interleave
File size                   : 1.46 GiB
Duration                    : 1 h 46 min
Overall bit rate            : 1 962 kb/s
Movie name                  : Звір / Beast (2017) [Ukr,Eng] [Hurtom]
Writing application         : VirtualDubModUkr 1.5.10.2 (build 2542/release)
Writing library             : VirtualDubMod build 2542/release

Video
ID                          : 0
Format                      : MPEG-4 Visual
Format profile              : Advanced [email protected]
Format settings             : BVOP2 / Custom Matrix
Format settings, BVOP       : 2
Format settings, QPel       : No
Format settings, GMC        : No warppoints
Format settings, Matrix     : Custom
Codec ID                    :
Codec ID/Hint               :
Duration                    : 1 h 46 min
Bit rate                    : 1 564 kb/s
Width                       : 720 pixels
Height                      : 304 pixels
Display aspect ratio        : 2.35:1
Frame rate                  : 24.000 FPS
Color space                 : YUV
Chroma subsampling          : 4:2:0
Bit depth                   : 8 bits
Scan type                   : Progressive
Compression mode            : Lossy
Bits/(Pixel*Frame)          : 0.298
Stream size                 : 1.16 GiB (80%)
Writing library             : 73

Audio #1
ID                          : 1
Format                      : AC-3
Format/Info                 : Audio Coding 3
Commercial name             : Dolby Digital
Codec ID                    : 2000
Duration                    : 1 h 46 min
Bit rate mode               : Constant
Bit rate                    : 192 kb/s
Channel(s)                  : 2 channels
Channel layout              : L R
Sampling rate               : 48.0 kHz
Frame rate                  : 31.250 FPS (1536 SPF)
Bit depth                   : 16 bits
Compression mode            : Lossy
Stream size                 : 146 MiB (10%)
Alignment                   : Split across interleaves
Interleave, duration        : 42  ms (1.00 video frame)
Interleave, preload duratio : 500  ms
Title                       : UKR MVO [UA:Культура]
Service kind                : Complete Main

Audio #2
ID                          : 2
Format                      : AC-3
Format/Info                 : Audio Coding 3
Commercial name             : Dolby Digital
Codec ID                    : 2000
Duration                    : 1 h 46 min
Bit rate mode               : Constant
Bit rate                    : 192 kb/s
Channel(s)                  : 2 channels
Channel layout              : L R
Sampling rate               : 48.0 kHz
Frame rate                  : 31.250 FPS (1536 SPF)
Bit depth                   : 16 bits
Compression mode            : Lossy
Stream size                 : 146 MiB (10%)
Alignment                   : Split across interleaves
Interleave, duration        : 42  ms (1.00 video frame)
Interleave, preload duratio : 500  ms
Title                       : ENG Original
Service kind                : Complete Main



Джерело: &
Подяка п.krigg070 за українську доріжку.


 Трекер:    Зареєстрований   

Завантажити / скачати фільм українською



відео для новачків



 Зареєстрований:   2019-07-05 10:59
 Розмір:   1.46 GB 
 Оцінка фільму:   9.3/10 (Голосів: 13)
 ЗАЛИШАЙТЕСЬ ЯКОМОГА ДОВШЕ НА РОЗДАЧІ! ЗАВАНТАЖИВ САМ - ДАЙ ЗАВАНТАЖИТИ ІНШИМ!
   
tereika 
Частий відвідувач


З нами з: 04.01.12
Востаннє: 13.11.19
Повідомлень: 31

2019-07-07 13:44  
Непоганий нібито фільм ... але гнітючий морально нестерпно.
Ваш часовий пояс: GMT + 2 Години

Нова тема   Відповісти