Формула 1. Сезон 2019. Етап 8. Гран-Прі Франція. Гонка (23.06.2019) 720p Ukr/2xEng/Int

Нові коментарі

Нова тема   Відповісти
Останній раз роздавалося Ant_SUmy (2020-10-07)
Автор Повідомлення
Anonymous 







2019-07-04 16:19  
Формула 1. Сезон 2019. Етап 8. Гран-Прі Франція. Гонка (23.06.2019) 720p Ukr/2xEng/Int

Формула 1. Сезон 2019. Етап 8. Гран-Прі Франція. Гонка (23.06.2019) 720p Ukr/2xEng/Int

Жанр: Перегони Формули 1
Країна: Франція
Телеканал: Feed
Коментатор: Максим Подзігун

Опис:
Гонка восьмого етапу Гран-Прі Фрнація 2019 року.


Якість: 720p

Відео:
кодек:
розмір кадру: 1280x720
бітрейт: 6104 кб/с

Аудіо # 1:
мова: українська
кодек: 2.0
бітрейт: 192 кб/с

Аудіо # 2:
мова: англійська
кодек: 5.1
бітрейт: 384 кб/с

Аудіо # 3:
мова: англійська
кодек: 2.0
бітрейт: 192 кб/с

Аудіо # 4:
мова: відсутня( інтершум )
кодек: 5.1
бітрейт: 448 кб/с
Тривалість:
02:25:43
Про файл:
General
Complete name : F1.2019.06.23.France.Race.720p. .Ukr.2xEng.Int.
Format :
Format version : Version 4
File size : 7.46 GiB
Duration : 2 h 25 min
Overall bit rate : 7 324 kb/s
Encoded date : UTC 2019-07-04 13:59:54
Writing application : v30.1.0 ('Forever And More') 64-bit
Writing library : libebml v1.3.6 + v1.4.9

Video
ID : 1
Format : AVC
Format/Info : Advanced Video Codec
Format profile : [email protected]
Format settings : CABAC / 4 Ref Frames
Format settings, CABAC : Yes
Format settings, RefFrames : 4 frames
Format settings, GOP : M=1, N=2
Codec ID : V_MPEG4/ISO/AVC
Duration : 2 h 25 min
Bit rate : 6 104 kb/s
Width : 1 280 pixels
Height : 720 pixels
Display aspect ratio : 16:9
Frame rate mode : Constant
Frame rate : 50.000 FPS
Color space : YUV
Chroma subsampling : 4:2:0
Bit depth : 8 bits
Scan type : Progressive
Bits/(Pixel*Frame) : 0.132
Stream size : 6.21 GiB (83%)
Writing library : core 148 r2705 3f5ed56
Encoding settings : cabac=1 / ref=3 / deblock=1:0:0 / analyse=0x3:0x113 / me=umh / subme=9 / psy=1 / psy_rd=1.00:0.00 / mixed_ref=1 / me_range=32 / chroma_me=1 / trellis=1 / 8x8dct=1 / cqm=0 / deadzone=21,11 / fast_pskip=1 / chroma_qp_offset=-2 / threads=18 / lookahead_threads=1 / sliced_threads=0 / nr=0 / decimate=1 / interlaced=0 / bluray_compat=0 / constrained_intra=0 / bframes=12 / b_pyramid=2 / b_adapt=1 / b_bias=0 / direct=1 / weightb=1 / open_gop=0 / weightp=2 / keyint=100 / keyint_min=10 / scenecut=40 / intra_refresh=0 / rc_lookahead=40 / rc=crf / mbtree=1 / crf=20.0 / qcomp=0.60 / qpmin=0 / qpmax=69 / qpstep=4 / vbv_maxrate=20000 / vbv_bufsize=25000 / crf_max=0.0 / nal_hrd=none / filler=0 / ip_ratio=1.40 / aq=1:1.00
Language : English
Default : Yes
Forced : No

Audio #1
ID : 2
Format : AC-3
Format/Info : Audio Coding 3
Commercial name : Dolby Digital
Codec ID : A_AC3
Duration : 2 h 25 min
Bit rate mode : Constant
Bit rate : 192 kb/s
Channel(s) : 2 channels
Channel layout : L R
Sampling rate : 48.0 kHz
Frame rate : 31.250 FPS (1536 SPF)
Bit depth : 16 bits
Compression mode : Lossy
Delay relative to video : 150 ms
Stream size : 200 MiB (3%)
Title : F1UA
Language : Ukrainian
Service kind : Complete Main
Default : No
Forced : No

Audio #2
ID : 3
Format : AC-3
Format/Info : Audio Coding 3
Commercial name : Dolby Digital
Codec ID : A_AC3
Duration : 2 h 25 min
Bit rate mode : Constant
Bit rate : 384 kb/s
Channel(s) : 6 channels
Channel layout : L R C LFE Ls Rs
Sampling rate : 48.0 kHz
Frame rate : 31.250 FPS (1536 SPF)
Bit depth : 16 bits
Compression mode : Lossy
Delay relative to video : 150 ms
Stream size : 400 MiB (5%)
Title : SkySports F1
Language : English
Service kind : Complete Main
Default : No
Forced : No

Audio #3
ID : 4
Format : AC-3
Format/Info : Audio Coding 3
Commercial name : Dolby Digital
Codec ID : A_AC3
Duration : 2 h 25 min
Bit rate mode : Constant
Bit rate : 192 kb/s
Channel(s) : 2 channels
Channel layout : L R
Sampling rate : 48.0 kHz
Frame rate : 31.250 FPS (1536 SPF)
Bit depth : 16 bits
Compression mode : Lossy
Delay relative to video : 150 ms
Stream size : 200 MiB (3%)
Title : Channel 4
Language : English
Service kind : Complete Main
Default : No
Forced : No

Audio #4
ID : 5
Format : AC-3
Format/Info : Audio Coding 3
Commercial name : Dolby Digital
Codec ID : A_AC3
Duration : 2 h 25 min
Bit rate mode : Constant
Bit rate : 448 kb/s
Channel(s) : 6 channels
Channel layout : L R C LFE Ls Rs
Sampling rate : 48.0 kHz
Frame rate : 31.250 FPS (1536 SPF)
Bit depth : 16 bits
Compression mode : Lossy
Delay relative to video : 150 ms
Stream size : 467 MiB (6%)
Title : Natural Sounds
Service kind : Complete Main
Default : No
Forced : No
Скріншоти:




Дякую Shewa1 за допомогу в створені реліза


 Трекер:    Зареєстрований   

Завантажити / скачати торрент



відео для новачків



 Зареєстрований:   2019-07-04 22:21
 Розмір:   7.46 GB 
 Оцінка:   6/10 (Голосів: 4)
   
bot 
робот


З нами з: 30.09.07
Востаннє: 26.05.05
Повідомлень: 25997

2019-07-04 22:21  
Тему перенесено з Анонси релізів до форуму Авто, мото


antik_2008

Ваш часовий пояс: GMT + 2 Години

Нова тема   Відповісти