Правила бійні / Slaughterhouse Rulez (2018) AVC Eng | Sub Ukr/Eng

Нові коментарі

Нова тема   Відповісти
Автор Повідомлення
Anonymous 







2019-07-03 18:10  
Правила бійні / Slaughterhouse Rulez (2018) AVC Eng | Sub Ukr/Eng

Правила бійні / Slaughterhouse Rulez (2018) AVC Eng | Sub Ukr/Eng
Альтернативний український та оригінальний постери:





Жанр: жахи, комедія
Країна: Велика Британія



Кінокомпанія: Catalyst Global Media, Sony Pictures International, Stolen Picture
Режисер: Кріспіан Міллс / Crispian Mills
Актори: Фінн Коул, Ейса Баттерфілд, Саймон Пегг, Герміона Корфілд, Майкл Шин, Том Ріс Гарріс, Марго Роббі, Нік Фрост, Джеймі Блеклі, Алекс МакКвін та інші

Сюжет:
В елітній британській школі-інтернаті з цікавою назвою Бійня, як і належить, панують снобізм, зарозумілість і жорстокий закон джунглів. Новеньким і слабким доводиться терпіти приниження і навіть побої. Деяку різноманітність у заведений десятиліттями порядок вносить неймовірно глибокий провал в землі. А м'ясоїдні чудовиська, які повилазили з діри і зовсім руйнують навчальний план, нагадуючи учням і викладачам, що таке справжній природний відбір.
Офіційний трейлер:


Рейтинг MPAA: R - особам до 17 років обов'язкова присутність батьків або дорослого опікуна
Вікова категорія: 16+

Тривалість: 01:43:41
Якість: AVC
Відео:
кодек:
розмір кадру: 1024 х 428
бітрейт: 1821 кб/с

Аудіо:
мова: англійська
переклад: оригінал
кодек: 5.1
бітрейт: 448 кб/с

Субтитри # 1:
мова: українська
тип: програмні (м'які)
формат: *.srt

Субтитри # 2-4:
мова: англійська (форсовані, повні, SDH)
тип: програмні (м'які)
формат: *.srt

Збережено оригінальні розділи, як на Blu-ray
Info
Код:
Complete name               : Slaughterhouse Rulez (2018) [Eng sub.Ukr,Eng] AVC [Hurtom].
Format                      :
Format version              : Version 4
File size                   : 1.65 GiB
Duration                    : 1 h 43 min
Overall bit rate            : 2 272 kb/s
Movie name                  : Правила бійні / Slaughterhouse Rulez (2018) [Eng sub.Ukr,Eng] AVC [Hurtom]
Encoded date                : UTC 2019-07-07 21:38:02
Writing application         : v35.0.0 ('All The Love In The World') 64-bit
Writing library             : libebml v1.3.9 + v1.5.2
Cover                       : Yes
Attachments                 : cover.jpg

Video
ID                          : 1
Format                      : AVC
Format/Info                 : Advanced Video Codec
Format profile              : [email protected]
Format settings             : CABAC / 10 Ref Frames
Format settings, CABAC      : Yes
Format settings, Reference  : 10 frames
Codec ID                    : V_MPEG4/ISO/AVC
Duration                    : 1 h 43 min
Bit rate                    : 1 821 kb/s
Width                       : 1 024 pixels
Height                      : 428 pixels
Display aspect ratio        : 2.40:1
Frame rate mode             : Constant
Frame rate                  : 23.976 (24000/1001) FPS
Color space                 : YUV
Chroma subsampling          : 4:2:0
Bit depth                   : 8 bits
Scan type                   : Progressive
Bits/(Pixel*Frame)          : 0.173
Stream size                 : 1.32 GiB (80%)
Title                       : Правила бійні / Slaughterhouse Rulez (2018) AVC [OlLanDGroup]
Writing library             : core 146 r2538 121396c
Encoding settings           : cabac=1 / ref=10 / deblock=1:-3:-3 / analyse=0x3:0x113 / me=umh / subme=11 / psy=1 / psy_rd=1.00:0.03 / mixed_ref=1 / me_range=48 / chroma_me=1 / trellis=2 / 8x8dct=1 / cqm=0 / deadzone=21,11 / fast_pskip=1 / chroma_qp_offset=-3 / threads=6 / lookahead_threads=1 / sliced_threads=0 / nr=0 / decimate=1 / interlaced=0 / bluray_compat=0 / constrained_intra=0 / bframes=11 / b_pyramid=2 / b_adapt=2 / b_bias=0 / direct=3 / weightb=1 / open_gop=0 / weightp=2 / keyint=240 / keyint_min=23 / scenecut=40 / intra_refresh=0 / rc_lookahead=40 / rc=2pass / mbtree=0 / bitrate=1821 / ratetol=1.0 / qcomp=0.60 / qpmin=0 / qpmax=69 / qpstep=4 / cplxblur=20.0 / qblur=0.5 / vbv_maxrate=50000 / vbv_bufsize=62500 / nal_hrd=none / filler=0 / ip_ratio=1.40 / pb_ratio=1.30 / aq=1:1.00
Language                    : English
Default                     : Yes
Forced                      : No

Audio
ID                          : 2
Format                      : AC-3
Format/Info                 : Audio Coding 3
Commercial name             : Dolby Digital
Codec ID                    : A_AC3
Duration                    : 1 h 43 min
Bit rate mode               : Constant
Bit rate                    : 448 kb/s
Channel(s)                  : 6 channels
Channel layout              : L R C LFE Ls Rs
Sampling rate               : 48.0 kHz
Frame rate                  : 31.250 FPS (1536 SPF)
Bit depth                   : 16 bits
Compression mode            : Lossy
Stream size                 : 332 MiB (20%)
Title                       : Original, 5.1 448 Kbps
Language                    : English
Service kind                : Complete Main
Default                     : Yes
Forced                      : No

Text #1
ID                          : 3
Format                      : UTF-8
Codec ID                    : S_TEXT/UTF8
Codec ID/Info               : UTF-8 Plain Text
Duration                    : 1 h 42 min
Bit rate                    : 95 b/s
Count of elements           : 1474
Stream size                 : 71.7 KiB (0%)
Title                       : Ukr full
Language                    : Ukrainian
Default                     : Yes
Forced                      : Yes

Text #2
ID                          : 4
Format                      : UTF-8
Codec ID                    : S_TEXT/UTF8
Codec ID/Info               : UTF-8 Plain Text
Duration                    : 2 min 45 s
Bit rate                    : 6 b/s
Count of elements           : 6
Stream size                 : 127 Bytes (0%)
Title                       : Eng Forced
Language                    : English
Default                     : No
Forced                      : No

Text #3
ID                          : 5
Format                      : UTF-8
Codec ID                    : S_TEXT/UTF8
Codec ID/Info               : UTF-8 Plain Text
Duration                    : 1 h 40 min
Bit rate                    : 72 b/s
Count of elements           : 1548
Stream size                 : 53.4 KiB (0%)
Title                       : Eng Full
Language                    : English
Default                     : No
Forced                      : No

Text #4
ID                          : 6
Format                      : UTF-8
Codec ID                    : S_TEXT/UTF8
Codec ID/Info               : UTF-8 Plain Text
Duration                    : 1 h 41 min
Bit rate                    : 77 b/s
Count of elements           : 1734
Stream size                 : 57.7 KiB (0%)
Title                       : Eng SDH
Language                    : English
Default                     : No
Forced                      : No

Menu
00:00:00.000                : en:Chapter 01
00:07:13.600                : en:Chapter 02
00:13:35.898                : en:Chapter 03
00:19:19.950                : en:Chapter 04
00:25:51.550                : en:Chapter 05
00:32:12.848                : en:Chapter 06
00:38:57.877                : en:Chapter 07
00:45:25.056                : en:Chapter 08
00:51:12.695                : en:Chapter 09
00:56:48.071                : en:Chapter 10
01:01:45.285                : en:Chapter 11
01:10:52.874                : en:Chapter 12
01:17:56.547                : en:Chapter 13
01:25:59.029                : en:Chapter 14
01:33:08.666                : en:Chapter 15
01:37:12.535                : en:Chapter 16
Скріншоти
Джерело: & &
Розпізнавання та редагування субтитрів: igor911, українізація постера (2й): DanyZemlyanoy.

Upd. 01.05.2020 Після появи іншого укр.перекладу та озвучення цей реліз буде оновлено з AVC до 720p


Золотий реліз (завантажене не впливає на рейтинг)
 Трекер:    Зареєстрований   

Завантажити / скачати фільм українською



відео для новачків



 Зареєстрований:   2019-07-08 08:18
 Розмір:   1.65 GB 
 Оцінка фільму:   9.3/10 (Голосів: 9)
   
11994455 
Попереджень: 2
Попереджень: 2 


З нами з: 07.04.14
Востаннє: 22.10.20
Повідомлень: 639

2019-07-03 21:24  
Я вже думав що це мав хтось озвучити .... налякався....
Valdemar038 
Свій


З нами з: 07.12.16
Востаннє: 20.10.20
Повідомлень: 50

2019-12-09 14:47  
Цитата:
Марго Роббі

Серйозно?

Anonymous 







2019-12-09 14:59  
Valdemar038 написано:
Серйозно?

Цілком. Див. 3й скріншот.

reminor7 
VIP


З нами з: 16.08.11
Востаннє: 11.06.20
Повідомлень: 347

2020-01-12 02:29  
Трохи дешевий фільм але акторська гра - норм.

6/10

Anonymous 







2020-04-06 11:59  
11994455 написано:
Я вже думав що це мав хтось озвучити .... налякався....

Таки знайшлись нелякливі добродії, почався збір коштів https://toloka.to/t109485 на озвучення.

Ваш часовий пояс: GMT + 2 Години

Нова тема   Відповісти