У порох / To Dust (2018) 1080p Eng | Sub Ukr/Eng

Нові коментарі

Нова тема   Відповісти
Автор Повідомлення
Anonymous 







2019-07-03 15:50  
У порох / To Dust (2018) 1080p Eng | Sub Ukr/Eng



Жанр: драма, комедія
Країна: США



Кінокомпанія: King Bee Productions, Salem Street Entertainment, UnLTD Productions, BRON Studios, Storyland Pictures, Wing and a Prayer Pictures
Режисер: Шон Снайдер / Shawn Snyder
Актори: Геза Рьоріґ / Géza Röhrig, Метью Бродерік / Matthew Broderick, Семмі Войт, Сара Джес Остелл, Наталі Картер, Берн Коен, Лінда Фрізер, Бен Хаммер, Лео Хеллер та інші

Сюжет:
Шмуль, хасидський кантор з північної частини штату Нью-Йорк, що втратив розум від передчасної смерті дружини, намагається знайти втіху в релігії, але таємно переживає про те, як розкладатиметься її тіло. Уклавши секретну угоду з Альбертом, професором біології місцевого коледжу, він починає буквальну і повну чорного гумору подорож до потойбічного світу.
Офіційний трейлер:

Рейтинг MPAA: R - особам до 17 років обов'язкова присутність батьків або дорослого опікуна
Вікова категорія: 16+

Тривалість: 01:31:43
Якість: 1080p
Відео:
кодек:
розмір кадру: 1920 х 790
бітрейт: 4570 кб/с

Аудіо:
мова: англійська
переклад: оригінал
кодек: 5.1
бітрейт: 384 кб/с

Субтитри # 1:
мова: українська
тип: програмні (м'які)
формат: *.srt
переклад: Володимир Фатун

Субтитри # 2:
мова: англійська
тип: програмні (м'які)
формат: *.srt
Info
Код:

Complete name               : To Dust (2018) [Eng sub.Ukr,Eng] 1080p [Hurtom].
Format                      :
Format version              : Version 4
File size                   : 3.18 GiB
Duration                    : 1 h 31 min
Overall bit rate            : 4 956 kb/s
Movie name                  : У порох / To Dust (2018) [Eng sub.Ukr,Eng] 1080p [Hurtom]
Cover                       : Yes
Attachments                 : cover.jpg

Video
ID                          : 1
Format                      : AVC
Format/Info                 : Advanced Video Codec
Format profile              : [email protected]
Format settings             : CABAC / 5 Ref Frames
Format settings, CABAC      : Yes
Format settings, Reference  : 5 frames
Codec ID                    : V_MPEG4/ISO/AVC
Duration                    : 1 h 31 min
Bit rate                    : 4 570 kb/s
Width                       : 1 920 pixels
Height                      : 790 pixels
Display aspect ratio        : 2.40:1
Frame rate mode             : Constant
Frame rate                  : 23.976 (23976/1000) FPS
Color space                 : YUV
Chroma subsampling          : 4:2:0
Bit depth                   : 8 bits
Scan type                   : Progressive
Bits/(Pixel*Frame)          : 0.126
Stream size                 : 2.93 GiB (92%)
Title                       : У порох / To Dust (2018) 1080p [BLUEBIRD]
Language                    : English
Default                     : Yes
Forced                      : No
Color range                 : Limited
Color primaries             : BT.709
Transfer characteristics    : BT.709
Matrix coefficients         : BT.709

Audio
ID                          : 2
Format                      : AC-3
Format/Info                 : Audio Coding 3
Commercial name             : Dolby Digital
Codec ID                    : A_AC3
Duration                    : 1 h 31 min
Bit rate mode               : Constant
Bit rate                    : 384 kb/s
Channel(s)                  : 6 channels
Channel layout              : L R C LFE Ls Rs
Sampling rate               : 48.0 kHz
Frame rate                  : 31.250 FPS (1536 SPF)
Bit depth                   : 16 bits
Compression mode            : Lossy
Stream size                 : 252 MiB (8%)
Title                       : Original, 5.1 384 Kbps
Language                    : English
Service kind                : Complete Main
Default                     : Yes
Forced                      : No

Text #1
ID                          : 3
Format                      : UTF-8
Codec ID                    : S_TEXT/UTF8
Codec ID/Info               : UTF-8 Plain Text
Duration                    : 1 h 31 min
Bit rate                    : 69 b/s
Count of elements           : 1036
Stream size                 : 46.4 KiB (0%)
Title                       : Ukr full [iTunes]
Language                    : Ukrainian
Default                     : Yes
Forced                      : Yes

Text #2
ID                          : 4
Format                      : UTF-8
Codec ID                    : S_TEXT/UTF8
Codec ID/Info               : UTF-8 Plain Text
Duration                    : 1 h 25 min
Bit rate                    : 49 b/s
Count of elements           : 1018
Stream size                 : 30.5 KiB (0%)
Title                       : Eng full
Language                    : English
Default                     : No
Forced                      : No

Menu
00:00:00.000                : en:1
00:04:41.614                : en:2
00:11:30.397                : en:3
00:19:03.266                : en:4
00:23:49.927                : en:5
00:27:22.931                : en:6
00:33:08.693                : en:7
00:40:30.676                : en:8
00:46:09.514                : en:9
00:50:58.469                : en:10
00:56:52.489                : en:11
01:03:12.535                : en:12
01:08:43.073                : en:13
01:14:14.362                : en:14
01:20:35.701                : en:15
01:26:20.295                : en:16
Скріншоти
Джерело: &


 Трекер:    Зареєстрований   

Завантажити / скачати фільм українською



відео для новачків



 Зареєстрований:   2019-07-03 16:40
 Розмір:   3.18 GB 
 Оцінка фільму:   7.7/10 (Голосів: 12)
 ЗАЛИШАЙТЕСЬ ЯКОМОГА ДОВШЕ НА РОЗДАЧІ! ЗАВАНТАЖИВ САМ - ДАЙ ЗАВАНТАЖИТИ ІНШИМ!
   
Інші релізи
   На порох / To Dust (2018) AVC Ukr/Eng | Sub Ukr/Eng Arsenfpu  13 / 0   1.85 GB   2020-11-07 19:47 
Romko_IF 
Свій


З нами з: 03.09.12
Востаннє: 26.11.20
Повідомлень: 78

2019-07-03 17:15  
Для чого взагалі перекладати таке лайно та ще й розповсюджувати його в Україні?!
zgryvus 
Відео Гуртом - дизайнер
Відео Гуртом - дизайнер


З нами з: 21.08.09
Востаннє: 26.11.20
Повідомлень: 1502

2019-07-03 18:58  
Romko_IF, мабуть, задля осмислення світу...
11FrYkT 
Модератор відео


З нами з: 20.02.11
Востаннє: 27.11.20
Повідомлень: 7033

2020-02-22 22:33  
Anonymous , додайте хоч 1 скрін з сабами
Anonymous 







2020-03-26 09:50  
11FrYkT, додав.
bohdk 
Відео Гуртом - субтитрування
Відео Гуртом - субтитрування


З нами з: 23.10.09
Востаннє: 26.11.20
Повідомлень: 740

2020-09-15 20:26  
Бомбезно!!!
Небагато фільмів, що зачіпають. Цей до них належить. Неперевершений гумор. На грані. Хто вечеряє, бажано відкласти перегляд. Happy
Ну, і як тут без любові? Хто втрачав близьких, той зрозуміє.

Ваш часовий пояс: GMT + 2 Години

Нова тема   Відповісти