Мовчання ягнят / The Silence of the Lambs (1991) 2xUkr/Eng | Sub Ukr/Eng

Нові коментарі

Нова тема   Відповісти
Автор Повідомлення
Anonymous 







2019-07-03 11:13  
Мовчання ягнят / The Silence of the Lambs (1991) 2xUkr/Eng | Sub Ukr/Eng

Мовчання ягнят / The Silence of the Lambs (1991) 2xUkr/Eng | Sub Ukr/Eng


Жанр: кримінальний, драма, психологічний трилер
Країна: США

5 Оскарів, Золотий глобус, 2 премії Британської кіноакадемії, 4 Сатурна, премія Берлінського кінофестивалю
Основні нагороди - детальніше:


Оскар, 1992 рік
Переможець (5):
Найкращий фільм
Найкраща чоловіча роль (Ентоні Гопкінс)
Найкраща жіноча роль (Джоді Фостер)
Найкращий режисер (Джонатан Деммі)
Найкращий адаптований сценарій



Золотий глобус, 1992 рік
Переможець (1):
Найкраща жіноча роль (Джоді Фостер)



Британська академія (BAFTA), 1992 рік
Переможець (2):
Найкраща чоловіча роль (Ентоні Гопкінс)
Найкраща жіноча роль (Джоді Фостер)



Сатурн, 1992 рік
Переможець (4):
Найкращий фільм жахів
Найкращий актор (Ентоні Гопкінс)
Найкращий сценарій
Найкращий грим



Берлінський кінофестиваль, 1992 рік
Переможець (1):
Срібний Ведмідь за найкращу режисерську роботу
Top250 #24

Кінокомпанія: Orion Pictures Corporation, Strong Heart/Demme Production
Режисер: Джонатан Деммі / Jonathan Demme
Актори: Ентоні Гопкінс / Anthony Hopkins, Джоді Фостер / Jodie Foster, Скот Ґлен / Scott Glenn, Роджер Кормен / Roger Corman, Чарльз Нап'єр / Charles Napier, Дайан Бейкер / Diane Baker та інші

Сюжет:
Психопат викрадає і вбиває молодих жінок по всьому Середньому Заходу Америки. ФБР, упевнене в тому, що всі злочини здійснені однією й тією ж людиною, доручає агенту Кларисі Старлінґ зустрітися з ув'язненим-маніяком, який міг би пояснити слідству психологічні мотиви серійного вбивці і таким чином вивести на його слід.


Тривалість: 01:58:31
Якість:

Відео:
кодек:
розмір кадру: 704х384
бітрейт: 1853 кб/с

Аудіо # 1:
мова: українська
переклад: професійний дубльований
кодек: 2.0
бітрейт: 192 кб/с

Аудіо # 2:
мова: українська
переклад: двоголосий закадровий
кодек: 2.0
бітрейт: 192 кб/с
ролі озвучили: Олег Лепенець та Лідія Муращенко

Аудіо # 3:
мова: англійська
переклад: оригінал
кодек: 5.1
бітрейт: 384 кб/с

Субтитри # 1:
мова: українська
тип: програмні (м'які)
формат: *.srt

Субтитри # 2:
мова: англійська
тип: програмні (м'які)
формат: *.srt
Info
Код:
General
Complete name               : The Silence of the Lambs (1991) [2xUkr,Eng] [Hurtom].avi
Format                      : AVI
Format/Info                 : Audio Video Interleave
Format profile              : OpenDML
File size                   : 2.19 GiB
Duration                    : 1 h 58 min
Overall bit rate            : 2 646 kb/s
Movie name                  : Мовчання ягнят / The Silence of the Lambs (1991) [2xUkr,Eng] [Hurtom]
Writing application         : VirtualDubModUkr 1.5.10.2 (build 2542/release)
Writing library             : VirtualDubMod build 2542/release

Video
ID                          : 0
Format                      : MPEG-4 Visual
Format profile              : Advanced [email protected]
Format settings             : BVOP1
Format settings, BVOP       : 1
Format settings, QPel       : No
Format settings, GMC        : No warppoints
Format settings, Matrix     : Default (MPEG)
Codec ID                    :
Codec ID/Hint               :
Duration                    : 1 h 58 min
Bit rate                    : 1 853 kb/s
Width                       : 704 pixels
Height                      : 384 pixels
Display aspect ratio        : 1.85:1
Frame rate                  : 23.976 (24000/1001) FPS
Color space                 : YUV
Chroma subsampling          : 4:2:0
Bit depth                   : 8 bits
Scan type                   : Progressive
Compression mode            : Lossy
Bits/(Pixel*Frame)          : 0.286
Stream size                 : 1.53 GiB (70%)
Writing library             : 1.2.1 (UTC 2008-12-04)

Audio #1
ID                          : 1
Format                      : AC-3
Format/Info                 : Audio Coding 3
Commercial name             : Dolby Digital
Codec ID                    : 2000
Duration                    : 1 h 58 min
Bit rate mode               : Constant
Bit rate                    : 192 kb/s
Channel(s)                  : 2 channels
Channel layout              : L R
Sampling rate               : 48.0 kHz
Frame rate                  : 31.250 FPS (1536 SPF)
Bit depth                   : 16 bits
Compression mode            : Lossy
Stream size                 : 162 MiB (7%)
Alignment                   : Split across interleaves
Interleave, duration        : 42  ms (1.00 video frame)
Interleave, preload duratio : 500  ms
Title                       : UKR DUB NLO.TV
Service kind                : Complete Main

Audio #2
ID                          : 2
Format                      : AC-3
Format/Info                 : Audio Coding 3
Commercial name             : Dolby Digital
Codec ID                    : 2000
Duration                    : 1 h 58 min
Bit rate mode               : Constant
Bit rate                    : 192 kb/s
Channel(s)                  : 2 channels
Channel layout              : L R
Sampling rate               : 48.0 kHz
Frame rate                  : 31.250 FPS (1536 SPF)
Bit depth                   : 16 bits
Compression mode            : Lossy
Stream size                 : 163 MiB (7%)
Alignment                   : Split across interleaves
Interleave, duration        : 42  ms (1.00 video frame)
Interleave, preload duratio : 500  ms
Title                       : UKR DVO 1+1
Service kind                : Complete Main

Audio #3
ID                          : 3
Format                      : AC-3
Format/Info                 : Audio Coding 3
Commercial name             : Dolby Digital
Codec ID                    : 2000
Duration                    : 1 h 58 min
Bit rate mode               : Constant
Bit rate                    : 384 kb/s
Channel(s)                  : 6 channels
Channel layout              : L R C LFE Ls Rs
Sampling rate               : 48.0 kHz
Frame rate                  : 31.250 FPS (1536 SPF)
Bit depth                   : 16 bits
Compression mode            : Lossy
Stream size                 : 326 MiB (15%)
Alignment                   : Split across interleaves
Interleave, duration        : 42  ms (1.00 video frame)
Interleave, preload duratio : 500  ms
Title                       : ENG Original
Service kind                : Complete Main


Джерело: &
Подяка Bohdan237, xslim за запис, omm, Arsenfpu за синхронізацію звуку, w2958l за редагування субтитрів, п.bober-mober за постер.


Срібний реліз (на рейтинг впливає 50% завантаженого)
 Трекер:    Зареєстрований   

Завантажити / скачати фільм українською



відео для новачків



 Зареєстрований:   2019-07-03 11:13
 Розмір:   2.19 GB 
 Оцінка фільму:   10/10 (Голосів: 11)
 ЗАЛИШАЙТЕСЬ ЯКОМОГА ДОВШЕ НА РОЗДАЧІ! ЗАВАНТАЖИВ САМ - ДАЙ ЗАВАНТАЖИТИ ІНШИМ!
   
Ваш часовий пояс: GMT + 2 Години

Нова тема   Відповісти