Формула 1. Сезон 2019. Етап 9. Гран-Прі Австрії. Гонка (30.06.2019) 720p

Нові коментарі

Нова тема   Відповісти
Останній раз роздавалося VicCob (2020-10-30)
Автор Повідомлення
sergiyko.5 
Забанено
Забанено


З нами з: 25.02.16
Востаннє: 29.10.20
Повідомлень: 3651

2019-07-02 13:12  
Формула 1. Сезон 2019. Етап 9. Гран-Прі Австрії. Гонка (30.06.2019) 720p

Формула 1. Сезон 2019. Етап 9. Гран-Прі Австрії. Гонка (30.06.2019) 720p

Жанр: Перегони Формули 1
Країна: Австрія
Телеканал: F1 TV
Коментатор: Роман Гончаров

Опис:
Гонка девятого етапу Гран-Прі Австрії 2019 року.


Якість:

Відео:кодек: розмір кадру: 1280 х 720 бітрейт: 1900 кб/с
Аудіо: мова: українська кодек: 2.0 бітрейт: 192 кб/с
Тривалість:
01:52:30
Про файл:
General
Unique ID : 229309791408960429254405250920323044511 (0xAC83759A07D6E41380AD5FC20619549F)
Complete name : D:\Torrent\F1.2019.09.Austria.Race..
Format :
Format version : Version 2
File size : 1.65 GiB
Duration : 1h 52mn
Overall bit rate : 2 097 Kbps
Encoded date : UTC 2019-07-01 21:00:55
Writing application : v7.8.0 ('River Man') 32bit built on Apr 3 2015 12:11:22
Writing library : libebml v1.3.1 + v1.4.2

Video
ID : 1
Format : AVC
Format/Info : Advanced Video Codec
Format profile : [email protected]
Format settings, CABAC : Yes
Format settings, ReFrames : 8 frames
Codec ID : V_MPEG4/ISO/AVC
Duration : 1h 52mn
Bit rate : 1 900 Kbps
Width : 1 280 pixels
Height : 720 pixels
Display aspect ratio : 16:9
Frame rate mode : Constant
Frame rate : 25.000 fps
Color space : YUV
Chroma subsampling : 4:2:0
Bit depth : 8 bits
Scan type : Progressive
Bits/(Pixel*Frame) : 0.082
Stream size : 1.46 GiB (89%)
Writing library : core 146 r2538 121396c
Encoding settings : cabac=1 / ref=8 / deblock=1:-1:-1 / analyse=0x3:0x113 / me=umh / subme=7 / psy=1 / psy_rd=1.00:0.20 / mixed_ref=1 / me_range=16 / chroma_me=1 / trellis=2 / 8x8dct=1 / cqm=0 / deadzone=21,11 / fast_pskip=0 / chroma_qp_offset=-3 / threads=6 / lookahead_threads=1 / sliced_threads=0 / nr=0 / decimate=0 / interlaced=0 / bluray_compat=0 / constrained_intra=0 / bframes=3 / b_pyramid=2 / b_adapt=2 / b_bias=0 / direct=1 / weightb=1 / open_gop=0 / weightp=2 / keyint=250 / keyint_min=25 / scenecut=40 / intra_refresh=0 / rc_lookahead=50 / rc=abr / mbtree=1 / bitrate=1900 / ratetol=1.0 / qcomp=0.60 / qpmin=0 / qpmax=69 / qpstep=4 / vbv_maxrate=14000 / vbv_bufsize=14000 / nal_hrd=none / filler=0 / ip_ratio=1.40 / aq=1:1.00
Default : Yes
Forced : No

Audio
ID : 2
Format : AC-3
Format/Info : Audio Coding 3
Mode extension : CM (complete main)
Format settings, Endianness : Big
Codec ID : A_AC3
Duration : 1h 52mn
Bit rate mode : Constant
Bit rate : 192 Kbps
Channel(s) : 2 channels
Channel positions : Front: L R
Sampling rate : 44.1 KHz
Compression mode : Lossy
Stream size : 155 MiB (9%)
Default : Yes
Forced : No
Скріншоти:


 Трекер:    Зареєстрований   

Завантажити / скачати торрент



відео для новачків



 Зареєстрований:   2019-07-02 13:12
 Розмір:   1.65 GB 
 Оцінка:   8.3/10 (Голосів: 10)
   
antik_2008 
Релізер і модератор відео


З нами з: 20.10.08
Востаннє: 29.10.20
Повідомлень: 4225

2019-07-02 18:38  
sergiyko.5
Етап 8 чекати ?

sergiyko.5 
Забанено
Забанено


З нами з: 25.02.16
Востаннє: 29.10.20
Повідомлень: 3651

2019-07-02 19:31  
antik_2008
Я на морі, що зміг, зробив.

VicCob 
Свій


З нами з: 16.06.10
Востаннє: 25.10.20
Повідомлень: 58

2019-07-03 07:47  
Нарешті!!! Вже зачекалися!!!
Farazoon 
Частий відвідувач


З нами з: 12.04.12
Востаннє: 25.10.20
Повідомлень: 27

2019-07-03 20:47  
оце діло, Рому потрібно підтримати
Methos_5000 
Новенький


З нами з: 04.05.17
Востаннє: 18.02.20
Повідомлень: 6

2019-07-09 11:52  
Дякую!!! Дякую!!! Дякую!!!
Ваш часовий пояс: GMT + 2 Години

Нова тема   Відповісти