Міссісіпі у вогні / Mississippi Burning (1988) [Remastered] 1080p H.265 Eng | Sub Ukr/Eng

Нові коментарі

Нова тема   Відповісти
Останній раз роздавалося -Star-Lord- (2019-08-06)
Автор Повідомлення
Anonymous 







2019-07-01 19:58  
Міссісіпі у вогні / Mississippi Burning (1988) [Remastered] 1080p H.265 Eng | Sub Ukr/Eng

Міссісіпі у вогні / Mississippi Burning (1988) [Remastered] 1080p H.265 Eng | Sub Ukr/Eng


Жанр: драма, трилер
Країна: США
Кінокомпанія: Orion Pictures, MGM Pictures
Режисер: Алан Паркер
Актори: Джин Хекмен, Віллем Дефо, Френсіс МакДорманд, Бред Дуріф, Р. Лі Ермі, Майкл Рукер, Стівен Тоболовскі.

Сюжет:
Міссісіпі, 1964 рік. Вбивство трьох борців за права людини піднімає хвилю масових безпорядків. Два агенти ФБР - Руперт Андерсон і Алан Ворд - отримують завдання розслідувати справу і знайти злочинців.

Тривалість: 02:07:10
Якість: [Remastered]
Відео:
кодек: H.265 (HEVC)
розмір кадру: 1920 x 1040
бітрейт: 6 844 кб/с
бітова глибина: 10 біт
Увага! Перед завантаженням переконайтесь, що ваш пристрій відтворення (та/або ПЗ) підтримує H.265 (HEVC)

Аудіо # 1:
мова: англійська
переклад: оригінал
кодек: 2.0
бітрейт: 1510 кб/с

Субтитри # 1:
мова: українська (SDH),
тип: програмні (м'які)
формат: *.srt

Субтитри # 2:
мова: англійська (SDH),
тип: програмні (м'які)
формат: *.srt


Info
Код:
General
Unique ID                                : 114289799299851859932132871893213964878 (0x55FB6A2888060E12ED8B75E0C196EA4E)
Complete name                            : Mississippi Burning (1988) [RM] 1080p H.265 [ENG] [Hurtom].
Format                                   :
Format version                           : Version 4 / Version 2
File size                                : 7.42 GiB
Duration                                 : 2 h 7 min
Overall bit rate                         : 8 352 kb/s
Movie name                               : Міссісіпі у вогні / Mississippi Burning (1988)
Encoded date                             : UTC 2019-07-01 17:41:15
Writing application                      : v20.0.0 ('I Am The Sun') 64-bit
Writing library                          : libebml v1.3.5 + v1.4.8
Cover                                    : Yes
Attachments                              : Cover.jpg

Video
ID                                       : 1
Format                                   : HEVC
Format/Info                              : High Efficiency Video Coding
Format profile                           : Main [email protected]@High
Codec ID                                 : V_MPEGH/ISO/HEVC
Duration                                 : 2 h 7 min
Bit rate                                 : 6 844 kb/s
Width                                    : 1 920 pixels
Height                                   : 1 040 pixels
Display aspect ratio                     : 1.85:1
Frame rate mode                          : Constant
Frame rate                               : 23.976 (24000/1001) FPS
Color space                              : YUV
Chroma subsampling                       : 4:2:0
Bit depth                                : 10 bits
Bits/(Pixel*Frame)                       : 0.143
Stream size                              : 6.08 GiB (82%)
Title                                    : Міссісіпі у вогні / Mississippi Burning (1988)
Language                                 : English
Default                                  : Yes
Forced                                   : No
Color range                              : Limited
Color primaries                          : BT.709
Transfer characteristics                 : BT.709
Matrix coefficients                      : BT.709

Audio
ID                                       : 2
Format                                   :
Format/Info                              : Digital Theater Systems
Codec ID                                 : A_DTS
Duration                                 : 2 h 6 min
Bit rate mode                            : Constant
Bit rate                                 : 1 509 kb/s
Channel(s)                               : 2 channels
Channel positions                        : Front: L R
Sampling rate                            : 48.0 kHz
Frame rate                               : 93.750 FPS (512 SPF)
Bit depth                                : 24 bits
Compression mode                         : Lossy
Stream size                              : 1.34 GiB (18%)
Title                                    : Original
Language                                 : English
Default                                  : Yes
Forced                                   : No

Text #1
ID                                       : 3
Format                                   : UTF-8
Codec ID                                 : S_TEXT/UTF8
Codec ID/Info                            : UTF-8 Plain Text
Duration                                 : 2 h 2 min
Bit rate                                 : 85 b/s
Count of elements                        : 1122
Stream size                              : 76.9 KiB (0%)
Title                                    : SDH
Language                                 : Ukrainian
Default                                  : Yes
Forced                                   : Yes

Text #2
ID                                       : 4
Format                                   : UTF-8
Codec ID                                 : S_TEXT/UTF8
Codec ID/Info                            : UTF-8 Plain Text
Duration                                 : 2 h 2 min
Bit rate                                 : 53 b/s
Count of elements                        : 1174
Stream size                              : 48.0 KiB (0%)
Title                                    : SDH
Language                                 : English
Default                                  : No
Forced                                   : No

Menu
00:00:00.000                             : en:Chapter 01
00:08:22.961                             : en:Chapter 02
00:19:48.437                             : en:Chapter 03
00:33:11.072                             : en:Chapter 04
00:51:38.262                             : en:Chapter 05
01:09:50.228                             : en:Chapter 06
01:31:22.686                             : en:Chapter 07
01:47:54.718                             : en:Chapter 08
Світлини





Джерело: &
Особиста оцінка: 0 - не дивився


Срібний реліз (на рейтинг впливає 50% завантаженого)
 Трекер:    Зареєстрований   

Завантажити / скачати фільм українською



відео для новачків



 Зареєстрований:   2019-07-01 19:58
 Розмір:   7.42 GB 
 Оцінка фільму:   10/10 (Голосів: 3)
   
11FrYkT 
Модератор відео


З нами з: 20.02.11
Востаннє: 01.12.20
Повідомлень: 7038

2019-07-01 21:56  
Anonymous , скрін з сабами не відповідає розміру
Anonymous 







2019-07-01 22:24  
11FrYkT
Замінив.

pafos_ua 
Новенький


З нами з: 29.05.14
Востаннє: 30.11.20
Повідомлень: 5

2019-10-28 09:13  
Привіт! Хтось може роздати?
Ваш часовий пояс: GMT + 2 Години

Нова тема   Відповісти