Скло / Glass (2019) UHD Remux 2160p 4K HDR H.265 Ukr/Eng

Нові коментарі

Нова тема   Відповісти
Автор Повідомлення
kocyxuh 
Новенький


З нами з: 05.12.16
Востаннє: 23.08.19
Повідомлень: 13

2019-06-30 21:36  
Скло / Glass (2019) UHD Remux 2160p 4K HDR H.265 Ukr/Eng

Скло / Glass (2019) UHD Remux 2160p 4K HDR H.265 Ukr/Eng
Оригінальний та альтернативний постери

Жанр: детектив, драма, трилер, фантастика
Країна: США



Кінокомпанія: Universal Pictures, Blumhouse Productions
Режисер: М.Найт Шьямалан
Актори: Джеймс МакЕвой, Брюс Вілліс, Семюел Л. Джексон, Аня Тейлор-Джой, Сара Полсон, Спенсер Тріт Кларк, Чарлейн Вудард, Люк Кірбі, М. Найт Ш'ямалан

Сюжет:
Події розгортаються у закритій психіатричній лікарні. Тут утримуються небезпечні злочинці з розладами особистості. Лікар-психіатр Еліс Тейпл (Сара Полсон) досліджує стан трьох в’язнів. Девід Дан (Брюс Вілліс) вважає себе супергероєм, невразливим до будь-яких фізичних впливів. Елайджа Прайс (Семюел Л. Джексон) називає себе Містер Скло. Він має дуже крихкі кістки та надзвичайний інтелект. Найнебезпечніший із в’язнів – Кевін Крамб (Джеймс Мак-Евой). У ньому одночасно уживаються 23 різних особистості.

Фантастичний трилер «Скло» режисера М. Найта Ш’ямалана – це продовження одночасно двох його стрічок: «Спліт» та «Невразливий». Знімаючи «Невразливого» Ш’ямалан вигадав ще одного героя, але так і не зміг включити його в сюжет фільму через обмежений бюджет. Задум реалізувався у «Спліті» 2016 року. З огляду на касовий та критичний успіх цього проекту, режисер наважився поєднати героїв у спільному фільмі, який слугуватиме продовженням розпочатих раніше історій.


Тривалість: 02:09:02
Якість: 4K UltraHD Remux 2160p

Відео:
кодек: H.265 (HEVC)
розмір кадру: 3840 x 2160
бітрейт: 65,7 Мб/с
бітова глибина: 10 біт
кольоровий простір: BT.2020 (HDR)

Аудіо # 1:
мова: українська
переклад: професійний дубльований | студія LeDoyen
кодек: 5.1
бітрейт: 448 кб/с
Українська доріжка звідси: Посилання

Аудіо # 2:
мова: англійська
переклад: оригінал
кодек: TrueHD+Atmos / TrueHD 7.1
бітрейт: 4109 кб/с

Аудіо # 3:
мова: англійська
переклад: оригінал
кодек: 5.1
бітрейт: 448 кб/с
Info
General
Unique ID : 141254965265052236689794217492948172859 (0x6A44B77C41568E6DB6D7AF98F137C03B)
Complete name : /home/andrij/Загрузки/Glass.2019.MVO.Remux.2160p.HDR.BlindCat.
Format :
Format version : Version 4
File size : 63.8 GiB
Duration : 2 h 9 min
Overall bit rate mode : Variable
Overall bit rate : 70.8 Mb/s
Movie name : Glass 2019 Blind Cat Ed
Encoded date : UTC 2019-06-30 15:00:49
Writing application : v35.0.0 ('All The Love In The World') 64-bit
Writing library : libebml v1.3.9 + v1.5.2

Video
ID : 1
Format : HEVC
Format/Info : High Efficiency Video Coding
Format profile : Main [email protected]@High
HDR format : SMPTE ST 2086, HDR10 compatible
Codec ID : V_MPEGH/ISO/HEVC
Duration : 2 h 9 min
Bit rate : 65.7 Mb/s
Width : 3 840 pixels
Height : 2 160 pixels
Display aspect ratio : 16:9
Frame rate mode : Constant
Frame rate : 23.976 (24000/1001) FPS
Color space : YUV
Chroma subsampling : 4:2:0 (Type 2)
Bit depth : 10 bits
Bits/(Pixel*Frame) : 0.330
Stream size : 59.2 GiB (93%)
Title : Glass.2019.MVO.Remux.2160p.HDR.BlindCat
Language : English
Default : Yes
Forced : No
Color range : Limited
Color primaries : BT.2020
Transfer characteristics : PQ
Matrix coefficients : BT.2020 non-constant
Mastering display color primaries : Display P3
Mastering display luminance : min: 0.0050 cd/m2, max: 1000 cd/m2
Maximum Content Light Level : 457 cd/m2
Maximum Frame-Average Light Level : 182 cd/m2

Audio #1
ID : 2
Format : AC-3
Format/Info : Audio Coding 3
Commercial name : Dolby Digital
Codec ID : A_AC3
Duration : 2 h 9 min
Bit rate mode : Constant
Bit rate : 448 kb/s
Channel(s) : 6 channels
Channel layout : L R C LFE Ls Rs
Sampling rate : 48.0 kHz
Frame rate : 31.250 FPS (1536 SPF)
Bit depth : 16 bits
Compression mode : Lossy
Stream size : 413 MiB (1%)
Title : 5.1 448 кб/с професійний дубльований
Language : Ukrainian
Service kind : Complete Main
Default : Yes
Forced : No

Audio #2
ID : 3
Format : MLP FBA 16-ch
Format/Info : Meridian Lossless Packing FBA with 16-channel presentation
Commercial name : Dolby TrueHD with Dolby Atmos
Codec ID : A_TRUEHD
Duration : 2 h 9 min
Bit rate mode : Variable
Bit rate : 4 109 kb/s
Maximum bit rate : 7 326 kb/s
Channel(s) : 8 channels
Channel layout : L R C LFE Ls Rs Lb Rb
Sampling rate : 48.0 kHz
Frame rate : 1 200.000 FPS (40 SPF)
Compression mode : Lossless
Stream size : 3.70 GiB (6%)
Title : Original
Language : English
Default : No
Forced : No
Number of dynamic objects : 11
Bed channel count : 1 channel
Bed channel configuration : LFE

Audio #3
ID : 4
Format : AC-3
Format/Info : Audio Coding 3
Commercial name : Dolby Digital
Codec ID : A_AC3
Duration : 2 h 9 min
Bit rate mode : Constant
Bit rate : 448 kb/s
Channel(s) : 6 channels
Channel layout : L R C LFE Ls Rs
Sampling rate : 48.0 kHz
Frame rate : 31.250 FPS (1536 SPF)
Bit depth : 16 bits
Compression mode : Lossy
Stream size : 413 MiB (1%)
Language : English
Service kind : Complete Main
Default : No
Forced : No

Menu
00:00:00.000 : en:Chapter 01
00:04:08.457 : en:Chapter 02
00:09:36.367 : en:Chapter 03
00:14:30.078 : en:Chapter 04
00:19:49.897 : en:Chapter 05
00:24:41.063 : en:Chapter 06
00:29:45.826 : en:Chapter 07
00:35:00.598 : en:Chapter 08
00:39:07.595 : en:Chapter 09
00:47:28.220 : en:Chapter 10
00:57:16.224 : en:Chapter 11
01:02:55.271 : en:Chapter 12
01:09:26.829 : en:Chapter 13
01:14:30.299 : en:Chapter 14
01:21:43.774 : en:Chapter 15
01:30:10.530 : en:Chapter 16
01:38:15.515 : en:Chapter 17
01:44:08.742 : en:Chapter 18
01:54:07.215 : en:Chapter 19
02:03:00.290 : en:Chapter 20
Скріншоти
Увага! Перед завантаженням переконайтесь, що ваш пристрій відтворення (та/або ПЗ) підтримує H.265 (HEVC) та -аудіокодек 

Роздаватиму поки що з 9 до 21, доки не звільню місце на основному пк

Джерело: &
Особиста оцінка: 0 - не дивився


Золотий реліз (завантажене не впливає на рейтинг)
 Трекер:    Зареєстрований   

Завантажити / скачати фільм українською



відео для новачків



 Зареєстрований:   2019-06-30 21:36
 Розмір:   63.79 GB 
 Оцінка фільму:   9.4/10 (Голосів: 5)
   
Інші релізи
   Скло / Glass (2019) 1080p H.265 Ukr/Eng | Sub Eng -Star-Lord-  9 / 0   8.05 GB   2019-05-19 14:32 
   Скло / Glass (2019) Remux 1080p Ukr/Eng | Sub Eng IronBee  2 / 0   30.76 GB   2019-05-18 20:28 
   Скло / Glass (2019) antik_2008  9 / 0   1.73 GB   2019-05-07 15:37 
   Скло / Glass (2019) 1080p Ukr/Eng | Sub Eng antik_2008  6 / 0   14.51 GB   2019-05-04 23:13 
   Скло / Glass (2019) AVC uafilm.tv  18 / 3   1.46 GB   2019-05-04 20:11 
   Скло / Glass (2019) 720p Ukr/Eng | Sub Eng 11FrYkT  17 / 0   5.77 GB   2019-05-04 20:03 
   Скло / Glass (2019) AVC Ukr/Eng | Sub Eng 11FrYkT  7 / 0   2.41 GB   2019-05-04 10:51 
   Скло / Glass (2019) Ukr/Eng Neo_Men  19 / 0   2.17 GB   2019-04-08 14:28 
   Скло / Glass (2019) UHD mini 2160p 4K HDR H.265 Ukr/Eng | Sub Eng/Fra/Spa Neo_Men  6 / 0   18.34 GB   2019-04-08 14:07 
staf777 
Відео Гуртом - підтримка та поширення
Відео Гуртом - підтримка та поширення


З нами з: 16.11.16
Востаннє: 24.08.19
Повідомлень: 2727

2019-06-30 22:35  
Оце розмір - я вибачаюсь а що це за саби таки Sub NONE Happy
igor911 
Модератор відео


З нами з: 18.01.08
Востаннє: 24.08.19
Повідомлень: 13167

2019-06-30 22:38  
Вітаю з першим релізом.
Є кілька зауважень:
kocyxuh написано:
Remux 2160p Ukr/Eng | Sub NONE

треба виправити на "UHD Remux 2160p 4K HDR H.265 Ukr/Eng"
kocyxuh написано:
бітрейт: 23.976216

треба вказати бітрейт відео (65,7 Мб/с), а не fps

також в хар-ки відео треба додати бітову глибину (тут 10 біт) та кольоровий простір (BT.2020 (HDR)), для зразку див. https://toloka.to/t100310

kocyxuh написано:
Українська доріжка звідси: https://toloka.to/t100381

треба виправити посилання, бо там досі 2.0 лайн звук, а тут наче як заявлено якісніший 5.1 448

kocyxuh написано:
кодек: -HD 7.1
бітрейт: 448 кб/с

поміняти переплутаний бітрейт оригінальних доріжок місцями

побажання на майбутнє:
kocyxuh написано:
Glass.2019.MVO.Remux.2160p.HDR.BlindCat.
Movie name : Glass 2019 4K from селезень
Title : Glass.2019.MVO.Remux.2160p.HDR.BlindCat

вказувати актуальну інф-ю в тегах і видаляти неактуальну.

kocyxuh 
Новенький


З нами з: 05.12.16
Востаннє: 23.08.19
Повідомлень: 13

2019-06-30 23:04  
igor911
Дякую за зауваження, Начепто усе виправив.

staf777
Винищив саби, бо у оригіналі були тільки россійські, ось і зауважив на це (сабів нема) Happy

igor911 
Модератор відео


З нами з: 18.01.08
Востаннє: 24.08.19
Повідомлень: 13167

2019-06-30 23:58  
kocyxuh написано:
бо у оригіналі були тільки россійські
...
Movie name : Glass 2019 4K from селезень

то певно щось вже зовсім "неоригінальне", бо навіть в неоригінальному релізі від сєлєзня на руторі (він теж бере блуреї/ремукси з інших трекерів) є повні та SDH англ.саби.

kocyxuh 
Новенький


З нами з: 05.12.16
Востаннє: 23.08.19
Повідомлень: 13

2019-07-01 00:07  
igor911
Знайшов у DC++ Happy Мабуть хтось під себе кодував.

Дякую за допомогу у першому релізі

Ваш часовий пояс: GMT + 2 Години

Нова тема   Відповісти