Тачки / Cars (2006) 1080p Ukr/Eng | Sub Ukr/Eng

Нові коментарі

Нова тема   Відповісти
Автор Повідомлення
SainTManiac 
VIP


З нами з: 17.09.09
Востаннє: 18.08.17
Повідомлень: 425

2010-01-13 10:09  
Тачки / Cars (2006) 1080p Ukr/Eng | Sub Ukr/Eng


«Ahhh... it's got that new movie smell»


Жанр: анімація, комедія, сімейний, спорт / animation, comedy, family, sport

Країна: США / USA



9.63 (98 голосів)

Кіностудія / кінокомпанія: Walt Disney Pictures, Pixar Animation Studios

Режисери та автори сценарію: Джон Лессетер (John Lasseter), Джо Ранфт (Joe Ranft)

Ролі озвучували (в оригіналі): Оуен Вілсон (Owen Wilson, Lightning McQueen), Пол Ньюман (Paul Newman, Doc Hudson), Бонні Хант (Bonnie Hunt, Sally Carrera), Ларрі Кабельник (Larry The Cable Guy, Mater), Чіч Марін (Cheech Marin, Ramone), Тоні Шелхоуб (Tony Shalhoub, Luigi), Ґвідо Квароні (Guido Quaroni, Guido)

Ролі дублювали: Остап Ступка (Блискавка МакКвін), Ольга Сумська (Саллі), Олександр Ігнатуша (Док Гадсон), Юрій Коваленко (Сирник), Андрій Середа, Євген Малуха, Лариса Руснак


Сюжет:
Неприборкний в своєму бажанні завжди і у всьому перемагати гоночний автомобіль «Блискавка» Маккуїн раптом виявляє, що збився з дороги і застряг в маленькому глухому містечку Радіатор-Спрінгс, що знаходиться десь на трасі 66 в Каліфорнії.

Беручи участь в гонках на Кубок Поршня, де йому протистояли два дуже досвідчених суперника, Маккуїн абсолютно не чекав, що віднині йому доведеться спілкуватися з персонажами зовсім іншого роду. Це, наприклад, Салі — шикарний Порше 2002-го року випуску, Док Хадсон — легковичок моделі «Гудзон Хорнет», 1951-го року випуску або Сирник — іржавий вантажівочка-евакуатор. І всі вони допомагають Маккуїну зрозуміти, що в світі існують деякі важливіші речі, ніж слава, призи і спонсори.



Тривалість: 01:56:08

Якість: 1080p

Відео:
кодек:
розмір кадру: 1920 х 800
бітрейт: 6977 кб/с

Аудіо # 1:
мова: українська
переклад: професійний дубльований
кодек: 5.1
бітрейт: 640 кб/с

Аудіо # 2:
мова: англійська
переклад: оригінал
кодек:
бітрейт: 1 536 кб/с

Переклад виконано і озвучено:


Субтитри #1-3:
мова: українська (форсовані), українська (повні), англійська
тип: програмні (м'які)
формат: srt
Info
Код:
General
Unique ID                                : 220773040384623954227366001844639529119 (0xA6175747C7838F1DA106B69CEDCC789F)
Complete name                            : Cars [Тачки] (2006) 1080p.
Format                                   :
Format version                           : Version 2
File size                                : 7.42 GiB
Duration                                 : 1h 56mn
Overall bit rate                         : 9 148 Kbps
Movie name                               : Cars (2006) 1080p [SainTManiac for Hurtom.com]
Encoded date                             : UTC 2010-01-13 07:08:08
Writing application                      : mkvmerge v2.9.8 ('C'est le bon') built on Aug 13 2009 12:49:06
Writing library                          : libebml v0.7.7 + libmatroska v0.8.1

Video
ID                                       : 1
Format                                   : AVC
Format/Info                              : Advanced Video Codec
Format profile                           : [email protected]
Format settings, CABAC                   : Yes
Format settings, ReFrames                : 5 frames
Codec ID                                 : V_MPEG4/ISO/AVC
Duration                                 : 1h 56mn
Bit rate                                 : 6 977 Kbps
Width                                    : 1 920 pixels
Height                                   : 800 pixels
Display aspect ratio                     : 2.40:1
Frame rate mode                          : Constant
Frame rate                               : 23.976 fps
Color space                              : YUV
Chroma subsampling                       : 4:2:0
Bit depth                                : 8 bits
Scan type                                : Progressive
Bits/(Pixel*Frame)                       : 0.189
Stream size                              : 5.53 GiB (75%)
Title                                    : Cars (2006) 1080p
Writing library                          : core 80 r1373M 4322f63
Encoding settings                        : cabac=1 / ref=5 / deblock=1:-1:-1 / analyse=0x3:0x113 / me=umh / subme=9 / psy=1 / psy_rd=1.0:0.0 / mixed_ref=1 / me_range=32 / chroma_me=1 / trellis=2 / 8x8dct=1 / cqm=0 / deadzone=21,11 / fast_pskip=0 / chroma_qp_offset=-2 / threads=12 / sliced_threads=0 / nr=0 / decimate=0 / mbaff=0 / constrained_intra=0 / bframes=6 / b_pyramid=2 / b_adapt=2 / b_bias=0 / direct=3 / wpredb=1 / wpredp=2 / keyint=240 / keyint_min=24 / scenecut=40 / rc_lookahead=80 / rc=2pass / mbtree=1 / bitrate=6977 / ratetol=1.0 / qcomp=0.80 / qpmin=10 / qpmax=51 / qpstep=4 / cplxblur=20.0 / qblur=0.5 / ip_ratio=1.40 / aq=1:0.80
Language                                 : English
Default                                  : No
Forced                                   : No

Audio #1
ID                                       : 2
Format                                   : AC-3
Format/Info                              : Audio Coding 3
Mode extension                           : CM (complete main)
Format settings, Endianness              : Big
Codec ID                                 : A_AC3
Duration                                 : 1h 56mn
Bit rate mode                            : Constant
Bit rate                                 : 640 Kbps
Channel count                            : 6 channels
Channel positions                        : Front: L C R, Side: L R, LFE
Sampling rate                            : 48.0 KHz
Bit depth                                : 16 bits
Compression mode                         : Lossy
Stream size                              : 532 MiB (7%)
Title                                    : Дубляж, СЕЕ | 5.1  640 kbps
Language                                 : Ukrainian
Default                                  : Yes
Forced                                   : No

Audio #2
ID                                       : 3
Format                                   :
Format/Info                              : Digital Theater Systems
Mode                                     : 16
Format settings, Endianness              : Big
Codec ID                                 : A_DTS
Duration                                 : 1h 56mn
Bit rate mode                            : Constant
Bit rate                                 : 1 510 Kbps
Channel count                            : 6 channels
Channel positions                        : Front: L C R, Side: L R, LFE
Sampling rate                            : 48.0 KHz
Bit depth                                : 24 bits
Compression mode                         : Lossy
Stream size                              : 1.22 GiB (17%)
Title                                    : Original | 5.1 1536 kbps
Language                                 : English
Default                                  : No
Forced                                   : No

Text #1
ID                                       : 4
Format                                   : UTF-8
Codec ID                                 : S_TEXT/UTF8
Codec ID/Info                            : UTF-8 Plain Text
Title                                    : Написи та ін.
Language                                 : Ukrainian
Default                                  : No
Forced                                   : No

Text #2
ID                                       : 5
Format                                   : UTF-8
Codec ID                                 : S_TEXT/UTF8
Codec ID/Info                            : UTF-8 Plain Text
Language                                 : Ukrainian
Default                                  : No
Forced                                   : No

Text #3
ID                                       : 6
Format                                   : UTF-8
Codec ID                                 : S_TEXT/UTF8
Codec ID/Info                            : UTF-8 Plain Text
Language                                 : English
Default                                  : No
Forced                                   : No

Menu
00:00:00.000                             : :01. Dinoco 400
00:09:27.692                             : :02. Victory Lane
00:13:38.109                             : :03. Rust-Eze
00:16:09.135                             : :04. "Life Is a Highway"
00:19:42.765                             : :05. Lost
00:24:23.170                             : :06. Into Town
00:27:16.844                             : :07. Where's McQueen?
00:28:02.055                             : :08. The Impound
00:29:31.436                             : :09. Traffic Court
00:33:47.567                             : :10. Bessie
00:35:43.558                             : :11. Customers!
00:41:40.456                             : :12. Doc's Challenge
00:45:45.868                             : :13. A New Road
00:48:30.324                             : :14. Turn Right to Go Left
00:50:28.776                             : :15. Back to Work
00:54:30.476                             : :16. Tractor Tipping
00:57:37.496                             : :17. Backwards Driving
01:01:19.050                             : :18. Goodnight
01:02:48.390                             : :19. Doc's Piston Cups
01:05:32.554                             : :20. Breakfast at Flo's
01:07:32.882                             : :21. Drive with Sally
01:09:39.092                             : :22. Wheel Well
01:11:17.023                             : :23. "Our Town"
01:14:51.237                             : :24. Stampede
01:15:47.585                             : :25. Doc Races
01:20:03.924                             : :26. He's Gone
01:22:11.468                             : :27. A New Customer
01:24:48.583                             : :28. Cruisin'
01:27:21.528                             : :29. McQueen Is Found
01:32:26.791                             : :30. California Race
01:46:07.403                             : :31. Back on the Map
01:48:21.620                             : :32. Epilogue
Скріншоти:
-=+++=-






















Джерело:


Особиста оцінка: 10 - без зайвих вагань рекомендую всім!


 Трекер:    Зареєстрований   

Завантажити / скачати мультфільм українською



відео для новачків



 Зареєстрований:   2010-01-13 10:39
 Розмір:   7.42 GB 
 Оцінка мультфільму:   9.9/10 (Голосів: 106)
   
Інші релізи
   Тачки / Cars [Open Matte] (2006) 1080p Ukr/Eng | Sub Ukr/Eng sergiyko.5  8 / 0   5.76 GB   2017-08-16 15:40 
   Тачки [повноекранна версія] / Cars [Open Matte] (2006) Ukr/Eng | Sub Ukr/Eng omm  20 / 5   2.55 GB   2017-06-19 10:08 
   Тачки / Cars (2006) arabon3  54 / 0   1.44 GB   2011-11-09 23:17 
   Тачки / Cars (2006) 1080p-mini Zeus62  11 / 0   4.24 GB   2011-04-05 13:28 
Miokoi 
Новенький


З нами з: 30.09.09
Востаннє: 19.08.17
Повідомлень: 12

2010-05-05 19:53  
прикольно,дякую,давнннно шукав
Слоник24 
Відео Гуртом - підтримка та поширення
Відео Гуртом - підтримка та поширення


З нами з: 10.03.10
Востаннє: 18.08.17
Повідомлень: 228

2010-05-15 21:37  
Спасибі. Автор молодець. Буде для малого потіха в такій якості!!!
var4un_85 
Новенький


З нами з: 27.05.10
Востаннє: 13.06.17
Повідомлень: 22

2011-07-27 08:31  
Дякую автору, за надану нам можливість подивитись цей милий мультик в такій якості !!! +100
lyntic 
Новенький


З нами з: 31.05.12
Востаннє: 06.09.12
Повідомлень: 4

2012-06-04 18:08  
Велике пасибі)))
Hohol^Fry 
Новенький


З нами з: 07.10.11
Востаннє: 19.08.17
Повідомлень: 18

2014-06-30 17:20  
Дякую за хорошу якість).
kirovetz 
Частий відвідувач


З нами з: 16.10.11
Востаннє: 19.08.17
Повідомлень: 37

2016-09-22 09:38  
Люди може хтось дати субтитри окремо.
джІван 
Новенький


З нами з: 17.11.16
Востаннє: 19.11.16
Повідомлень: 1

2016-11-17 22:41  
Величезне Спасибі. Хоча і дивився не одноразово. Знову було приємно передивитися. Дивилися всією сім'єю. Мені 37, жінці 33, дітям 14 та 2,5. дякую
SERGNATANDIMPETR 
Новенький


З нами з: 03.12.16
Востаннє: 04.07.17
Повідомлень: 2

2016-12-03 18:35  
SainTManiac
Дякую за мульт у FHD якості. Давно шукав. Діти вже безліч разів дивилися і ще бажають, та хотілося якісну картинку їм показувати. А наш дубляж нашою співучою, просто не перевершений!!!!

Ваш часовий пояс: GMT + 2 Години

Нова тема   Відповісти