Пустопляс / The Beach Bum (2019) 1080p Ukr/Eng | Sub Eng

Нові коментарі

Нова тема   Відповісти
Останній раз роздавалося foxlazy (2020-06-11)
Автор Повідомлення
Anonymous 







2019-06-30 18:17  
Пустопляс / The Beach Bum (2019) 1080p Ukr/Eng | Sub Eng


«Низько пасти, щоб високо піднятися»



Жанр: комедія
Країна: США, Велика Британія





Кінокомпанія: Iconoclast, Anonymous Content, Grisbi Productions, Le
Режисер: Хармоні Корін
Актори: Меттью МакКонахі, Снуп Догг, Айла Фішер, Стефанія Оуен, Зак Ефрон, Джона Гілл, Джиммі Баффетт, Донован Сент-Вільямс, Мартін Лоуренс, Клінтон Арчамбо

Сюжет:
Білосніжні пляжі, тепле море та неймовірна кількість наркотиків і різних тусовок – ось реалії життя чоловіка на прізвисько Місячний Пес. Усе це, на його думку, допомагає йому писати книгу віршів, адже письменникові завжди потрібна муза. Чоловік живе за своїми власними правилами, повністю отримуючи максимум від життя. Звичайно ж, те, що Місячний Пес постійно знаходиться під кайфом або просто п'яний, ніколи не приводить його ні до чого хорошого – тільки веселі, безглузді пригоди, за які нормальній людині, безумовно, було би соромно. Але таке життя Місячного Пса, він просто отримує від нього задоволення.


Тривалість: 01:34:40
Якість: 1080p

Відео:
кодек:
розмір кадру: 1920 x 806
бітрейт: 17900 кб/с

мова: українська
переклад: професійний дубльований
кодек: 2.0
бітрейт: 192 кб/с

Аудіо # 2:
мова: англійська
переклад: оригінал
кодек: 5.1
бітрейт: 640 кб/с

Субтитри:
мова: англійська
тип: програмні (м'які)
формат: *.srt
Info
Код:
General
Complete name                            : The Beach Bum (2019) 1080p [ukr,eng] [ViDeO_Hurtom].
Format                                   :
Format version                           : Version 4
File size                                : 12.4 GiB
Duration                                 : 1 h 34 min
Overall bit rate                         : 18.7 Mb/s
Movie name                               : The Beach Bum (2019) 1080p [ukr,eng] [ViDeO_Hurtom]
Encoded date                             : UTC 2019-06-30 15:04:48
Writing application                      : v30.1.0 ('Forever And More') 64-bit
Writing library                          : libebml v1.3.6 + v1.4.9

Video
ID                                       : 1
Format                                   : AVC
Format/Info                              : Advanced Video Codec
Format profile                           : [email protected]
Format settings                          : CABAC / 5 Ref Frames
Format settings, CABAC                   : Yes
Format settings, RefFrames               : 5 frames
Codec ID                                 : V_MPEG4/ISO/AVC
Duration                                 : 1 h 34 min
Bit rate                                 : 17.9 Mb/s
Width                                    : 1 920 pixels
Height                                   : 806 pixels
Display aspect ratio                     : 2.40:1
Frame rate mode                          : Constant
Frame rate                               : 23.976 (24000/1001) FPS
Color space                              : YUV
Chroma subsampling                       : 4:2:0
Bit depth                                : 8 bits
Scan type                                : Progressive
Bits/(Pixel*Frame)                       : 0.482
Stream size                              : 11.8 GiB (96%)
Title                                    : MTeam
Writing library                          : core 157 r2938 2b00a84 [email protected] Mod
Encoding settings                        : cabac=1 / ref=5 / deblock=1:-3:-3 / analyse=0x3:0x133 / me=umh / subme=10 / psy=1 / psy_rd=1.05:0.00 / mixed_ref=1 / me_range=32 / chroma_me=1 / trellis=2 / 8x8dct=1 / cqm=0 / deadzone=21,11 / fast_pskip=0 / chroma_qp_offset=-2 / threads=12 / lookahead_threads=2 / sliced_threads=0 / nr=0 / decimate=0 / interlaced=0 / bluray_compat=0 / constrained_intra=0 / bframes=8 / b_pyramid=2 / b_adapt=2 / b_bias=0 / direct=3 / weightb=1 / open_gop=0 / weightp=2 / keyint=250 / keyint_min=24 / scenecut=40 / intra_refresh=0 / rc_lookahead=250 / rc=crf / mbtree=0 / crf=15.7 / qcomp=0.60 / qpmin=0 / qpmax=69 / qpstep=4 / vbv_maxrate=62500 / vbv_bufsize=78125 / crf_max=0.0 / nal_hrd=none / filler=0 / ip_ratio=1.30 / pb_ratio=1.20 / aq=3:0.80
Language                                 : English
Default                                  : Yes
Forced                                   : No
Color range                              : Limited
Color primaries                          : BT.709
Matrix coefficients                      : BT.709

Audio #1
ID                                       : 2
Format                                   : AC-3
Format/Info                              : Audio Coding 3
Commercial name                          : Dolby Digital
Codec ID                                 : A_AC3
Duration                                 : 1 h 34 min
Bit rate mode                            : Constant
Bit rate                                 : 192 kb/s
Channel(s)                               : 2 channels
Channel layout                           : L R
Sampling rate                            : 48.0 kHz
Frame rate                               : 31.250 FPS (1536 SPF)
Bit depth                                : 16 bits
Compression mode                         : Lossy
Stream size                              : 130 MiB (1%)
Title                                    : 2.0 @ 192 kbps - Line
Language                                 : Ukrainian
Service kind                             : Complete Main
Default                                  : Yes
Forced                                   : No

Audio #2
ID                                       : 3
Format                                   : AC-3
Format/Info                              : Audio Coding 3
Commercial name                          : Dolby Digital
Codec ID                                 : A_AC3
Duration                                 : 1 h 34 min
Bit rate mode                            : Constant
Bit rate                                 : 640 kb/s
Channel(s)                               : 6 channels
Channel layout                           : L R C LFE Ls Rs
Sampling rate                            : 48.0 kHz
Frame rate                               : 31.250 FPS (1536 SPF)
Bit depth                                : 16 bits
Compression mode                         : Lossy
Stream size                              : 433 MiB (3%)
Title                                    : 5.1 @ 640 kbps
Language                                 : English
Service kind                             : Complete Main
Default                                  : No
Forced                                   : No

Text
ID                                       : 4
Format                                   : UTF-8
Codec ID                                 : S_TEXT/UTF8
Codec ID/Info                            : UTF-8 Plain Text
Duration                                 : 1 h 31 min
Bit rate                                 : 79 b/s
Count of elements                        : 1348
Stream size                              : 53.0 KiB (0%)
Title                                    : Full
Language                                 : English
Default                                  : No
Forced                                   : No

Скріншоти










Джерело:
Особиста оцінка: 0 - не дивився


 Трекер:    Зареєстрований   

Завантажити / скачати фільм українською



відео для новачків



 Зареєстрований:   2019-08-04 13:54
 Розмір:   10.47 GB 
 Оцінка фільму:   6.7/10 (Голосів: 13)
   
Інші релізи
   Пустопляс / The Beach Bum (2019) antik_2008  3 / 0   1.45 GB   2019-08-02 10:09 
   Пустопляс / The Beach Bum (2019) Remux 1080p Ukr/Eng | Sub Eng staf777  2 / 0   16.49 GB   2019-08-02 09:24 
   Пустопляс / The Beach Bum (2019) 720p Ukr/Eng | Sub Eng 11FrYkT  1 / 0   5.1 GB   2019-07-31 10:46 
   Пустопляс / The Beach Bum (2019) AVC Ukr/Eng | Sub Eng 11FrYkT  6 / 3   1.64 GB   2019-07-31 10:40 
Anonymous 







2019-08-04 13:54  
04.08.2019 Роздачу оновлено


Замінив доріжку на якіснішу



crazy kinoman 
Новенький


З нами з: 25.01.16
Востаннє: 17.09.20
Повідомлень: 22

2019-08-06 00:32  
MPC видав помилку: неможливо відтворити файл, так і не зрозумів у чому причина
стандартний у Windows 10 також не зміг(
GOM player зміг відкрити, мабуть справа у кодеках

Jani307 
Свій


З нами з: 09.06.14
Востаннє: 23.09.20
Повідомлень: 132

2019-08-12 15:02  
Та ж проблема. Кодеки оновив. Не відтворюється... Морозиво розплавилося...
Rastas 
Новенький


З нами з: 28.07.10
Востаннє: 21.09.20
Повідомлень: 5

2019-08-18 17:22  
Не відтворюється!
Ваш часовий пояс: GMT + 2 Години

Нова тема   Відповісти