Донбас / Donbass (2018) 720p Ukr/Rus | Sub Eng

Нові коментарі

Нова тема   Відповісти
Автор Повідомлення
Anonymous 







2019-06-30 17:16  
Донбас / Donbass (2018) 720p Ukr/Rus | Sub Eng

Донбас / Donbass (2018) 720p Ukr/Rus | Sub Eng
Обкладинка блурея:



Жанр: драма
Країна: Україна, Німеччина, Франція, Нідерланди, Румунія



Кінокомпанія: Ma.Ja.De Filmproduktions-GmbH, Arthouse Traffic, JBA Production, Graniet Film, Wild at Art, Atoms & Void, Digital Cube Post-Production, Держкіно України
Режисер: Сергій Лозниця
Актори: Валеріу Андрюце, Георгій Делієв, Борис Каморзін, Костянтин Ітунін, Сергєй Колєсов, Світлана Колесова, Наталія Бузько, Торстен Мертен, Вадим Дубовський, Євген Чистяков

Сюжет:
Тринадцять коротких сюжетів показують панораму життя на окупованих територіях, від трагедії до комічного фарсу. «Зелені чоловічки» не можуть пригадати назви свого «рідного містечка, тут поруч». Німецького журналіста на блокпосту зустрічають криком «фашиста зловили!». Тут святкують весілля та влаштовують вуличні розправи, експропріюють на благо «республік» машини та гроші, живуть у підвалах, рятуючись від обстрілів. Фільм Сергія Лозниці шукає відповідь на запитання: де в цьому калейдоскопі проходить грань між правдою і вигадкою?

Світова прем'єра відбулася 9 травня 2018 на 71-му Каннському міжнародному фестивалі, де стрічка отримала приз за найкращу режисуру у програмі «Особливий погляд» а також стала фільмом-відкриттям фестивалю.

Фільм став переможцем у трьох номінаціях національної кінопремії “Золота Дзиґа”: найкращий фільм, найкраща режисерська робота та найкращий сценарій.

Держкіно України виділило майже 17 млн.грн. на зйомки фільму.
Офіційний трейлер (обережно, матюки):

Вікова категорія: 16+

Тривалість: 02:01:35
Якість: 720p [Англомовний відеоряд з британського блурея]

Відео:
кодек:
розмір кадру: 1280 х 536
бітрейт: 4924 кб/с

Аудіо # 1:
мова: українська
переклад: багатоголосий закадровий
кодек: 2.0 [стерео]
бітрейт: 192 кб/с

Аудіо # 2:
мова: російська, українська (декілька реплік)
переклад: оригінал
кодек: 5.1
бітрейт: 640 кб/с
примітка: обережно, присутні матюки!

Субтитри:
мова: англійська
тип: програмні (м'які)
формат: *.srt
Info
Код:
General
Unique ID                   : 228791922039122207487655465007721287612 (0xAC1FB8ABA1F1A90354E3C70CA8890FBC)
Complete name               : Donbass (2018) [Ukr,Rus sub.Eng] 720p [Hurtom].
Format                      :
Format version              : Version 4
File size                   : 4.89 GiB
Duration                    : 2 h 1 min
Overall bit rate            : 5 758 kb/s
Movie name                  : Донбас / Donbass (2018) [Ukr,Rus sub.Eng] 720p [Hurtom]
Encoded date                : UTC 2019-06-30 14:55:45
Writing application         : v35.0.0 ('All The Love In The World') 64-bit
Writing library             : libebml v1.3.9 + v1.5.2
Cover                       : Yes
Attachments                 : cover.jpg

Video
ID                          : 1
Format                      : AVC
Format/Info                 : Advanced Video Codec
Format profile              : [email protected]
Format settings             : CABAC / 12 Ref Frames
Format settings, CABAC      : Yes
Format settings, Reference  : 12 frames
Codec ID                    : V_MPEG4/ISO/AVC
Duration                    : 2 h 1 min
Bit rate                    : 4 924 kb/s
Width                       : 1 280 pixels
Height                      : 536 pixels
Display aspect ratio        : 2.40:1
Frame rate mode             : Constant
Frame rate                  : 23.976 (24000/1001) FPS
Color space                 : YUV
Chroma subsampling          : 4:2:0
Bit depth                   : 8 bits
Scan type                   : Progressive
Bits/(Pixel*Frame)          : 0.299
Stream size                 : 4.18 GiB (86%)
Title                       : Донбас / Donbass (2018) 720p [CADAVER]
Writing library             : core 157 r2969 d4099dd
Encoding settings           : cabac=1 / ref=12 / deblock=1:-3:-3 / analyse=0x3:0x133 / me=umh / subme=9 / psy=1 / psy_rd=1.00:0.00 / mixed_ref=1 / me_range=24 / chroma_me=1 / trellis=1 / 8x8dct=1 / cqm=0 / deadzone=21,11 / fast_pskip=0 / chroma_qp_offset=-2 / threads=17 / lookahead_threads=2 / sliced_threads=0 / nr=0 / decimate=1 / interlaced=0 / bluray_compat=0 / constrained_intra=0 / bframes=8 / b_pyramid=2 / b_adapt=2 / b_bias=0 / direct=3 / weightb=1 / open_gop=0 / weightp=2 / keyint=250 / keyint_min=23 / scenecut=40 / intra_refresh=0 / rc_lookahead=60 / rc=2pass / mbtree=1 / bitrate=4924 / ratetol=1.0 / qcomp=0.60 / qpmin=0 / qpmax=69 / qpstep=4 / cplxblur=20.0 / qblur=0.5 / vbv_maxrate=62500 / vbv_bufsize=78125 / nal_hrd=none / filler=0 / ip_ratio=1.40 / aq=1:1.00
Language                    : English
Default                     : Yes
Forced                      : No

Audio #1
ID                          : 2
Format                      : AC-3
Format/Info                 : Audio Coding 3
Commercial name             : Dolby Digital
Codec ID                    : A_AC3
Duration                    : 2 h 1 min
Bit rate mode               : Constant
Bit rate                    : 192 kb/s
Channel(s)                  : 2 channels
Channel layout              : L R
Sampling rate               : 48.0 kHz
Frame rate                  : 31.250 FPS (1536 SPF)
Bit depth                   : 16 bits
Compression mode            : Lossy
Stream size                 : 167 MiB (3%)
Title                       : MVO, 2.0 [stereo] 192 Kbps [Hurtom]
Language                    : Ukrainian
Service kind                : Complete Main
Default                     : Yes
Forced                      : No

Audio #2
ID                          : 3
Format                      : AC-3
Format/Info                 : Audio Coding 3
Commercial name             : Dolby Digital
Codec ID                    : A_AC3
Duration                    : 2 h 1 min
Bit rate mode               : Constant
Bit rate                    : 640 kb/s
Channel(s)                  : 6 channels
Channel layout              : L R C LFE Ls Rs
Sampling rate               : 48.0 kHz
Frame rate                  : 31.250 FPS (1536 SPF)
Bit depth                   : 16 bits
Compression mode            : Lossy
Stream size                 : 557 MiB (11%)
Title                       : Original, 5.1 640 Kbps
Language                    : Russian
Service kind                : Complete Main
Default                     : No
Forced                      : No

Text
ID                          : 4
Format                      : UTF-8
Codec ID                    : S_TEXT/UTF8
Codec ID/Info               : UTF-8 Plain Text
Duration                    : 1 h 55 min
Bit rate                    : 45 b/s
Count of elements           : 1422
Stream size                 : 38.5 KiB (0%)
Language                    : English
Default                     : No
Forced                      : No

Menu
00:00:00.000                : en:Chapter 01
00:08:38.852                : en:Chapter 02
00:18:34.613                : en:Chapter 03
00:33:32.886                : en:Chapter 04
00:41:13.096                : en:Chapter 05
00:49:56.202                : en:Chapter 06
01:00:18.865                : en:Chapter 07
01:08:33.484                : en:Chapter 08
01:19:18.295                : en:Chapter 09
01:27:50.891                : en:Chapter 10
01:40:25.728                : en:Chapter 11
01:47:07.671                : en:Chapter 12


Джерело: &


Золотий реліз (завантажене не впливає на рейтинг)
 Трекер:    Зареєстрований   

Завантажити / скачати український фільм



відео для новачків



 Зареєстрований:   2019-06-30 17:16
 Розмір:   4.89 GB 
 Оцінка фільму:   9.6/10 (Голосів: 38)
 ЗАЛИШАЙТЕСЬ ЯКОМОГА ДОВШЕ НА РОЗДАЧІ! ЗАВАНТАЖИВ САМ - ДАЙ ЗАВАНТАЖИТИ ІНШИМ!
   
Інші релізи
   Донбас / Donbass (2018) 1080p Ukr/Rus | Sub Eng igor911  10 / 0   9.45 GB   2019-06-30 16:36 
   Донбас / Donbass (2018) Remux 1080p Ukr/Rus | Sub Eng igor911  10 / 0   32.56 GB   2019-06-30 15:16 
   Донбас / Donbass (2018) Ukr/Rus igor911  19 / 0   1.62 GB   2019-03-03 11:40 
   Донбас / Donbass (2018) 1080p Ukr/Rus igor911  14 / 0   4.02 GB   2019-03-03 11:35 
   Донбас / Donbass (2018) AVC 11FrYkT  5 / 0   1.45 GB   2019-03-03 08:56 
+380954897458 
VIP


З нами з: 02.06.17
Востаннє: 04.03.21
Повідомлень: 1109

2019-09-25 18:36  
Страшне, важке, але потрібне кіно.
sasha_ark 
Частий відвідувач


З нами з: 09.11.19
Востаннє: 02.03.21
Повідомлень: 35

2020-01-13 10:33  
Дякую
olzoz 
Частий відвідувач


З нами з: 04.02.17
Востаннє: 14.02.21
Повідомлень: 39

2020-01-19 00:47  
Дивився в кінотеатрі. Рекомендую. Сюжети взяті з реальності.
Ваш часовий пояс: GMT + 2 Години

Нова тема   Відповісти