Попелюшка / Cinderella (2015) UHD Remux 4K 2160p HDR H.265 Ukr/Eng | Sub Ukr/Eng

Нові коментарі

Нова тема   Відповісти
Автор Повідомлення
Anonymous 







2019-06-30 16:17  
Попелюшка / Cinderella (2015) UHD Remux 4K 2160p HDR H.265 Ukr/Eng | Sub Ukr/Eng


Попелюшка / Cinderella (2015) UHD Remux 4K 2160p HDR H.265 Ukr/Eng | Sub Ukr/Eng


Жанр: драма, сімейний, фентезі
Країна: США, Велика Британія





Кінокомпанія: Allison Shearmur Productions, Beagle Pug Films, Genre Films
Режисер: Кеннет Брана
Актори: Лілі Джеймс, Кейт Бланшет, Річард Медден, Гелена Бонем Картер, Нонсо Анозі, Стеллан Скарсґард, Софі МакШера, Голлідей Ґрейнджер, Дерек Джекобі, Бен Чаплін та інші

Сюжет:
Батько молодої дівчини на ім'я Елла, залишившись вдівцем, одружується вдруге, і незабаром Елла опиняється сам-на-сам з жадібними і заздрісними новими родичками - мачухою леді Тремейн і її дочками - Анастасією та Дрізеллою. З господині будинку вона перетворюється на служницю, вічно забруднену сажею, за що і отримує від своїх сварливих зведених сестриць прізвисько - Попелюшка. Незважаючи на халепи, що випали на її долю, Попелюшка не зневіряється, адже навіть у найважчі моменти знаходиться щось, що допомагає їй думати про хороше: наприклад, випадкова зустріч на лісовій стежці з прекрасним юнаком. Елла навіть не припускає, що зустрілася з самим принцом, і що незабаром Фея-хрещена назавжди змінить її життя на краще.


Тривалість: 01:45:22
Якість: UHD Remux 4K 2160p
Відео:
кодек: H.265 (HEVC)
розмір кадру: 3840x2160
бітрейт: 63,9 Мб/с
бітова глибина: 10 біт
кольоровий простір: BT.2020 (HDR)

Аудіо # 1:
мова: українська
переклад: професійний дубльований
кодек: 5.1
бітрейт: 1536 кб/с

Аудіо # 2:
мова: українська
переклад: професійний дубльований
кодек: 5.1
бітрейт: 384 кб/с

Аудіо # 3:
мова: англійська
переклад: оригінал
кодек: 5.1
бітрейт: 640 кб/с

Аудіо # 4:
мова: англійська
переклад: оригінал
кодек: TrueHD 7.1
бітрейт: 4681 кб/с

Субтитри # 1-2: (Forced, Full)
мова: українська
тип: програмні (м'які)
формат: *.srt

Субтитри # 3: (Full)
мова: англійська
тип: програмні (м'які)
формат: *.srt
Info
Код:
General
Complete name                            : Cinderella (2015) Remux 4K 2160p HDR H.265 [UKR_ENG] [ViDeO_Hurtom].
Format                                   :
Format version                           : Version 4
File size                                : 52.4 GiB
Duration                                 : 1 h 45 min
Overall bit rate mode                    : Variable
Overall bit rate                         : 70.9 Mb/s
Movie name                               : Cinderella (2015) Remux 4K 2160p HDR H.265 [UKR_ENG] [ViDeO_Hurtom]
Encoded date                             : UTC 2019-06-30 19:17:59
Writing application                      : v30.1.0 ('Forever And More') 64-bit
Writing library                          : libebml v1.3.6 + v1.4.9

Video
ID                                       : 1
Format                                   : HEVC
Format/Info                              : High Efficiency Video Coding
Commercial name                          : HDR10
Format profile                           : Main [email protected]@High
Codec ID                                 : V_MPEGH/ISO/HEVC
Duration                                 : 1 h 45 min
Bit rate                                 : 63.9 Mb/s
Width                                    : 3 840 pixels
Height                                   : 2 160 pixels
Display aspect ratio                     : 16:9
Frame rate mode                          : Constant
Frame rate                               : 23.976 (24000/1001) FPS
Color space                              : YUV
Chroma subsampling                       : 4:2:0 (Type 2)
Bit depth                                : 10 bits
Bits/(Pixel*Frame)                       : 0.321
Stream size                              : 47.0 GiB (90%)
Writing library                          : ATEME Titan File 3.9.0 (4.9.0.0)
Language                                 : English
Default                                  : Yes
Forced                                   : No
Color range                              : Limited
Color primaries                          : BT.2020
Transfer characteristics                 : PQ
Matrix coefficients                      : BT.2020 non-constant
Mastering display color primaries        : Display P3
Mastering display luminance              : min: 0.0020 cd/m2, max: 1000 cd/m2

Audio #1
ID                                       : 2
Format                                   :
Format/Info                              : Digital Theater Systems
Codec ID                                 : A_DTS
Duration                                 : 1 h 45 min
Bit rate mode                            : Constant
Bit rate                                 : 1 509 kb/s
Channel(s)                               : 6 channels
Channel layout                           : C L R Ls Rs LFE
Sampling rate                            : 48.0 kHz
Frame rate                               : 93.750 FPS (512 SPF)
Bit depth                                : 24 bits
Compression mode                         : Lossy
Delay relative to video                  : -1 ms
Stream size                              : 1.11 GiB (2%)
Title                                    : , 6 ch, 1536 Кбт/с
Language                                 : Ukrainian
Default                                  : Yes
Forced                                   : No

Audio #2
ID                                       : 3
Format                                   : AC-3
Format/Info                              : Audio Coding 3
Commercial name                          : Dolby Digital
Codec ID                                 : A_AC3
Duration                                 : 1 h 45 min
Bit rate mode                            : Constant
Bit rate                                 : 384 kb/s
Channel(s)                               : 6 channels
Channel layout                           : L R C LFE Ls Rs
Sampling rate                            : 48.0 kHz
Frame rate                               : 31.250 FPS (1536 SPF)
Bit depth                                : 16 bits
Compression mode                         : Lossy
Delay relative to video                  : -1 ms
Stream size                              : 289 MiB (1%)
Title                                    : , 6 ch, 384 Кбт/с
Language                                 : Ukrainian
Service kind                             : Complete Main
Default                                  : No
Forced                                   : No

Audio #3
ID                                       : 4
Format                                   : AC-3
Format/Info                              : Audio Coding 3
Commercial name                          : Dolby Digital
Codec ID                                 : A_AC3
Duration                                 : 1 h 45 min
Bit rate mode                            : Constant
Bit rate                                 : 640 kb/s
Channel(s)                               : 6 channels
Channel layout                           : L R C LFE Ls Rs
Sampling rate                            : 48.0 kHz
Frame rate                               : 31.250 FPS (1536 SPF)
Bit depth                                : 16 bits
Compression mode                         : Lossy
Delay relative to video                  : 31 ms
Stream size                              : 482 MiB (1%)
Title                                    : , 6 ch, 640 Кбт/с
Language                                 : English
Service kind                             : Complete Main
Default                                  : No
Forced                                   : No

Audio #4
ID                                       : 5
Format                                   : MLP FBA 16-ch
Format/Info                              : Meridian Lossless Packing FBA with 16-channel presentation
Commercial name                          : Dolby TrueHD with Dolby Atmos
Codec ID                                 : A_TRUEHD
Duration                                 : 1 h 45 min
Bit rate mode                            : Variable
Bit rate                                 : 4 681 kb/s
Maximum bit rate                         : 8 343 kb/s
Channel(s)                               : 8 channels
Channel layout                           : L R C LFE Ls Rs Lb Rb
Sampling rate                            : 48.0 kHz
Frame rate                               : 1 200.000 FPS (40 SPF)
Compression mode                         : Lossless
Delay relative to video                  : 32 ms
Stream size                              : 3.45 GiB (7%)
Title                                    : TrueHD, 8 ch, 4681 Кбт/с
Language                                 : English
Default                                  : No
Forced                                   : No
Number of dynamic objects                : 13
Bed channel count                        : 1 channel
Bed channel configuration                : LFE

Text #1
ID                                       : 6
Format                                   : UTF-8
Codec ID                                 : S_TEXT/UTF8
Codec ID/Info                            : UTF-8 Plain Text
Duration                                 : 1 min 0 s
Bit rate                                 : 3 b/s
Count of elements                        : 2
Stream size                              : 30.0 Bytes (0%)
Title                                    : Forced
Language                                 : Ukrainian
Default                                  : Yes
Forced                                   : No

Text #2
ID                                       : 7
Format                                   : UTF-8
Codec ID                                 : S_TEXT/UTF8
Codec ID/Info                            : UTF-8 Plain Text
Duration                                 : 1 h 44 min
Bit rate                                 : 77 b/s
Count of elements                        : 1432
Stream size                              : 59.5 KiB (0%)
Title                                    : Full
Language                                 : Ukrainian
Default                                  : No
Forced                                   : No

Text #3
ID                                       : 8
Format                                   : UTF-8
Codec ID                                 : S_TEXT/UTF8
Codec ID/Info                            : UTF-8 Plain Text
Duration                                 : 1 h 44 min
Bit rate                                 : 52 b/s
Count of elements                        : 1426
Stream size                              : 40.2 KiB (0%)
Title                                    : Full
Language                                 : English
Default                                  : No
Forced                                   : No

Menu
00:00:00.000                             : :Глава 01
00:06:35.436                             : :Глава 02
00:13:58.587                             : :Глава 03
00:17:56.116                             : :Глава 04
00:22:05.574                             : :Глава 05
00:26:36.761                             : :Глава 06
00:31:17.876                             : :Глава 07
00:34:37.700                             : :Глава 08
00:38:39.400                             : :Глава 09
00:42:54.697                             : :Глава 10
00:52:52.752                             : :Глава 11
01:03:13.956                             : :Глава 12
01:10:54.667                             : :Глава 13
01:16:42.723                             : :Глава 14
01:20:41.753                             : :Глава 15
01:25:36.089                             : :Глава 16
01:28:27.176                             : :Глава 17
01:39:11.528                             : :Глава 18
[/center]
Скріншоти
[





Джерело:
Особиста оцінка: 9 - давно не бачив настільки якісне кіно

Увага! Перед завантаженням переконайтесь, що ваш пристрій відтворення (та/або ПЗ) підтримує H.265 (HEVC)


Золотий реліз (завантажене не впливає на рейтинг)
 Трекер:    Зареєстрований   

Завантажити / скачати фільм українською



відео для новачків



 Зареєстрований:   2019-07-01 18:07
 Розмір:   52.37 GB 
 Оцінка фільму:   9.7/10 (Голосів: 7)
   
Інші релізи
   Попелюшка / Cinderella (2015) Remux 1080p Ukr/Eng | Sub Ukr/Eng Alex60  1 / 0   28.73 GB   2015-08-26 19:00 
   Попелюшка / Cinderella (2015) Ukr/Eng | Sub Ukr/Eng Gelios  9 / 0   1.45 GB   2015-07-31 16:18 
   Попелюшка / Cinderella (2015) AVC patriot2305  3 / 0   1.66 GB   2015-07-31 15:54 
   Попелюшка / Cinderella (2015) 1080p Ukr/Eng | Sub Ukr/Eng 11FrYkT  4 / 0   14.37 GB   2015-07-31 15:08 
   Попелюшка / Cinderella (2015) 720p Ukr/Eng | Sub Ukr/Eng 11FrYkT  3 / 0   5.49 GB   2015-07-31 15:07 
   Попелюшка / Cinderella (2015) 720p-mini Drool  2 / 0   2.21 GB   2015-07-20 07:01 
bot 
робот


З нами з: 30.09.07
Востаннє: 26.05.05
Повідомлень: 22477

2019-07-01 18:07  
Тему перенесено з Анонси релізів до форуму Фільми в HD


antik_2008

ngxwinger 
Свій


З нами з: 19.01.14
Востаннє: 17.11.19
Повідомлень: 56

2019-07-02 05:19  
Дякую, час від часу передивляємось цей фільм для покращення настрою. Завантажив реліз, відкрив поряд зі звичайним 1080p на 9.7ГБ, на жаль жодної різниці в деталізації не помітив, такий собі 4К ремастер...
Ваш часовий пояс: GMT + 2 Години

Нова тема   Відповісти