Донбас / Donbass (2018) Remux 1080p Ukr/Rus | Sub Eng

Нові коментарі

Нова тема   Відповісти
Автор Повідомлення
Anonymous 







2019-06-30 09:08  
Донбас / Donbass (2018) Remux 1080p Ukr/Rus | Sub Eng

Донбас / Donbass (2018) Remux 1080p Ukr/Rus | Sub Eng
Обкладинка блурея:



Жанр: драма
Країна: Україна, Німеччина, Франція, Нідерланди, Румунія



Кінокомпанія: Ma.Ja.De Filmproduktions-GmbH, Arthouse Traffic, JBA Production, Graniet Film, Wild at Art, Atoms & Void, Digital Cube Post-Production, Держкіно України
Режисер: Сергій Лозниця
Актори: Валеріу Андрюце, Георгій Делієв, Борис Каморзін, Костянтин Ітунін, Сергєй Колєсов, Світлана Колесова, Наталія Бузько, Торстен Мертен, Вадим Дубовський, Євген Чистяков

Сюжет:
Тринадцять коротких сюжетів показують панораму життя на окупованих територіях, від трагедії до комічного фарсу. «Зелені чоловічки» не можуть пригадати назви свого «рідного містечка, тут поруч». Німецького журналіста на блокпосту зустрічають криком «фашиста зловили!». Тут святкують весілля та влаштовують вуличні розправи, експропріюють на благо «республік» машини та гроші, живуть у підвалах, рятуючись від обстрілів. Фільм Сергія Лозниці шукає відповідь на запитання: де в цьому калейдоскопі проходить грань між правдою і вигадкою?

Світова прем'єра відбулася 9 травня 2018 на 71-му Каннському міжнародному фестивалі, де стрічка отримала приз за найкращу режисуру у програмі «Особливий погляд» а також стала фільмом-відкриттям фестивалю.

Фільм став переможцем у трьох номінаціях національної кінопремії “Золота Дзиґа”: найкращий фільм, найкраща режисерська робота та найкращий сценарій.

Держкіно України виділило майже 17 млн.грн. на зйомки фільму.
Офіційний трейлер (обережно, матюки):

Вікова категорія: 16+

Тривалість: 02:01:35
Якість: Remux 1080p [Англомовний відеоряд з британського блурея]

Відео:
кодек:
розмір кадру: 1920 х 1080
бітрейт: 35 Мб/с

Аудіо # 1:
мова: українська
переклад: багатоголосий закадровий
кодек: 2.0 [стерео]
бітрейт: 192 кб/с

Аудіо # 2:
мова: російська, українська (декілька реплік)
переклад: оригінал
кодек: -HD MA 5.1
бітрейт: 1984 кб/с
примітка: обережно, присутні матюки!

Аудіо # 3:
мова: російська, українська (декілька реплік)
переклад: оригінал
кодек: LPCM 2.0
бітрейт: 1536 кб/с
примітка: обережно, присутні матюки!

Субтитри:
мова: англійська
тип: пререндерні
формат: pgs

Збережено оригінальні розділи, як на Blu-ray
Info
Код:
General
Unique ID                   : 185452166872689004147223993342114076364 (0x8B84C9C3C00D327A7EF2BA24AEAF16CC)
Complete name               : Donbass (2018) [Ukr,Rus] Remux 1080p [Hurtom].
Format                      :
Format version              : Version 4
File size                   : 32.6 GiB
Duration                    : 2 h 1 min
Overall bit rate mode       : Variable
Overall bit rate            : 38.3 Mb/s
Movie name                  : Донбас / Donbass (2018) [Ukr,Rus] Remux 1080p [Hurtom]
Encoded date                : UTC 2019-06-30 12:34:54
Writing application         : v35.0.0 ('All The Love In The World') 64-bit
Writing library             : libebml v1.3.9 + v1.5.2
Cover                       : Yes
Attachments                 : cover.jpg

Video
ID                          : 1
Format                      : AVC
Format/Info                 : Advanced Video Codec
Format profile              : [email protected]
Format settings             : CABAC / 4 Ref Frames
Format settings, CABAC      : Yes
Format settings, Reference  : 4 frames
Format settings, GOP        : M=3, N=24
Codec ID                    : V_MPEG4/ISO/AVC
Duration                    : 2 h 1 min
Bit rate mode               : Constant
Bit rate                    : 35.0 Mb/s
Width                       : 1 920 pixels
Height                      : 1 080 pixels
Display aspect ratio        : 16:9
Frame rate mode             : Constant
Frame rate                  : 23.976 (24000/1001) FPS
Standard                    : NTSC
Color space                 : YUV
Chroma subsampling          : 4:2:0
Bit depth                   : 8 bits
Scan type                   : Progressive
Bits/(Pixel*Frame)          : 0.704
Stream size                 : 29.4 GiB (90%)
Title                       : Донбас / Donbass (2018) Remux 1080p [VEXHD]
Language                    : English
Default                     : Yes
Forced                      : No
Color range                 : Limited
Color primaries             : BT.709
Transfer characteristics    : BT.709
Matrix coefficients         : BT.709

Audio #1
ID                          : 2
Format                      : AC-3
Format/Info                 : Audio Coding 3
Commercial name             : Dolby Digital
Codec ID                    : A_AC3
Duration                    : 2 h 1 min
Bit rate mode               : Constant
Bit rate                    : 192 kb/s
Channel(s)                  : 2 channels
Channel layout              : L R
Sampling rate               : 48.0 kHz
Frame rate                  : 31.250 FPS (1536 SPF)
Bit depth                   : 16 bits
Compression mode            : Lossy
Stream size                 : 167 MiB (1%)
Title                       : MVO, 2.0 [stereo] 192 Kbps [Hurtom]
Language                    : Ukrainian
Service kind                : Complete Main
Default                     : Yes
Forced                      : No

Audio #2
ID                          : 3
Format                      : XLL
Format/Info                 : Digital Theater Systems
Commercial name             : -HD Master Audio
Codec ID                    : A_DTS
Duration                    : 2 h 1 min
Bit rate mode               : Variable
Bit rate                    : 1 984 kb/s
Channel(s)                  : 6 channels
Channel layout              : C L R Ls Rs LFE
Sampling rate               : 48.0 kHz
Frame rate                  : 93.750 FPS (512 SPF)
Bit depth                   : 16 bits
Compression mode            : Lossless
Stream size                 : 1.68 GiB (5%)
Title                       : Original, -HD MA 5.1 1984 Kbps
Language                    : Russian
Default                     : No
Forced                      : No

Audio #3
ID                          : 4
Format                      : PCM
Format settings             : Little / Signed
Codec ID                    : A_PCM/INT/LIT
Duration                    : 2 h 1 min
Bit rate mode               : Constant
Bit rate                    : 1 536 kb/s
Channel(s)                  : 2 channels
Sampling rate               : 48.0 kHz
Frame rate                  : 200.000 FPS (240 SPF)
Bit depth                   : 16 bits
Stream size                 : 1.30 GiB (4%)
Title                       : Original, PCM 2.0 1536 Kbps
Language                    : Russian
Default                     : No
Forced                      : No

Text
ID                          : 5
Format                      : PGS
Codec ID                    : S_HDMV/PGS
Codec ID/Info               : Picture based subtitle format used on BDs/HD-DVDs
Duration                    : 2 h 0 min
Bit rate                    : 24.9 kb/s
Count of elements           : 2846
Stream size                 : 21.4 MiB (0%)
Language                    : English
Default                     : No
Forced                      : No

Menu
00:00:00.000                : :Chapter 01
00:08:38.851                : :Chapter 02
00:18:34.613                : :Chapter 03
00:33:32.885                : :Chapter 04
00:41:13.095                : :Chapter 05
00:49:56.201                : :Chapter 06
01:00:18.865                : :Chapter 07
01:08:33.484                : :Chapter 08
01:19:18.295                : :Chapter 09
01:27:50.890                : :Chapter 10
01:40:25.728                : :Chapter 11
01:47:07.671                : :Chapter 12


Джерело: &


Золотий реліз (завантажене не впливає на рейтинг)
 Трекер:    Зареєстрований   

Завантажити / скачати український фільм



відео для новачків



 Зареєстрований:   2019-06-30 15:16
 Розмір:   32.56 GB 
 Оцінка фільму:   9.6/10 (Голосів: 66)
 ЗАЛИШАЙТЕСЬ ЯКОМОГА ДОВШЕ НА РОЗДАЧІ! ЗАВАНТАЖИВ САМ - ДАЙ ЗАВАНТАЖИТИ ІНШИМ!
   
Інші релізи
   Донбас / Donbass (2018) 720p Ukr/Rus | Sub Eng igor911  5 / 0   4.89 GB   2019-06-30 17:16 
   Донбас / Donbass (2018) 1080p Ukr/Rus | Sub Eng igor911  11 / 0   9.45 GB   2019-06-30 16:36 
   Донбас / Donbass (2018) Ukr/Rus igor911  13 / 0   1.62 GB   2019-03-03 11:40 
   Донбас / Donbass (2018) 1080p Ukr/Rus igor911  15 / 0   4.02 GB   2019-03-03 11:35 
   Донбас / Donbass (2018) AVC 11FrYkT  3 / 0   1.45 GB   2019-03-03 08:56 
Malwa 
Новенький


З нами з: 22.11.16
Востаннє: 17.02.21
Повідомлень: 8

2019-11-10 19:51  
Потужне кіно!Раджу всім!
101095101095 
Новенький


З нами з: 02.08.13
Востаннє: 26.02.21
Повідомлень: 2

2019-11-11 09:54  
Вірю у відродження ноціональної єдності.
putinhuilo_ 
Новенький


З нами з: 08.03.18
Востаннє: 22.02.21
Повідомлень: 10

2020-01-16 22:12  
Фантастично реальний фільм. Все що я знаю про свідомість дамбаса та його народу, всі персонажі, кожна репліка- попадання на 100%!! настільки талановитого та правдивого відображення характерів, настільки якісної гри акторів я давно не бачив. ну, можливо, Далієв пережав трохи... ну, трохи)
нещодавно подивився Пекельну Хоругву - класс!!, але це зовсім інше
Всім раджу!! Повірте - все так і є, ментальність знята чотко, хто з дамбасом особисто не знайомий - you are welcome!!!

olzoz 
Частий відвідувач


З нами з: 04.02.17
Востаннє: 14.02.21
Повідомлень: 39

2020-01-21 18:31  
Фільм клас!! Дивився в кіно. Радж. З 10 ставлю 10

Додано через 1 хвилину 21 секунду:

putinhuilo_
А кого Делієв грав?

neshumaher 
Новенький


З нами з: 11.12.16
Востаннє: 28.02.21
Повідомлень: 13

2020-02-13 22:42  
10. І цей сюр зовсім поряд.
grab777 
Новенький


З нами з: 01.12.11
Востаннє: 14.12.20
Повідомлень: 7

2020-02-24 04:18  
101095101095 написано:
Вірю у відродження ноціональної єдності.

А по іншому і бути не може!

tomcatginger 
Новенький


З нами з: 06.04.15
Востаннє: 09.02.21
Повідомлень: 4

2020-03-22 11:17  
Дякую за роздачу. Такий фільм треба дивитися всім. Взяв на зберігання. Роздаю 24/7.
Anonymous 







2021-01-06 11:09  
olzoz написано:
А кого Делієв грав?

Окупанта/колаборанта "Батяню"

Злой_Печенька 
Частий відвідувач


З нами з: 10.09.13
Востаннє: 27.02.21
Повідомлень: 36

2021-01-29 23:44  
А мені, на жаль, не зайшов фільм. Початок цікавий, а далі.... ледве додивився до кінця.
Ваш часовий пояс: GMT + 2 Години

Нова тема   Відповісти