Елтон Джон (Elton John) - Благодійний концерт проти СНІДу у Києві (30.06.2012) DVD5

Нові коментарі

Нова тема   Відповісти
Останній раз роздавалося Rules (2019-11-17)
Автор Повідомлення
profs 
Новенький


З нами з: 21.01.13
Востаннє: 09.11.19
Повідомлень: 4

2019-06-29 12:44  
Елтон Джон (Elton John) - Благодійний концерт проти СНІДу у Києві (30.06.2012) DVD5 | Pop Rock


Стиль: Pop Rock
Країна, місто: Велика Британія
Сайти: https://www.eltonjohn.com/
Виконавці: Elton John

Тривалість: 01:36:39
Відео:
кодек: MPEG-2 DVD
розмір кадру: 704 х 576
бітрейт: 6180 кб/с

Аудіо:
мова: англійська
кодек: 2.0
бітрейт: 256 кб/с
Трекліст


  1. Saturday Night's Alright for Fighting
  2. Bennie and the Jets
  3. Levon
  4. Tiny Dancer
  5. Philadelphia Freedom
  6. Candle in the Wind
  7. Goodbye Yellow Brick Road
  8. Rocket Man
  9. Hey Ahab
  10. I Guess That’s Why They Call It the Blues
  11. Sacrifice
  12. Sad Songs (Say So Much)
  13. Nikita
  14. Don’t Let the Sun Go Down on Me
  15. I’m Still Standing
  16. The Bitch Is Back
  17. Crocodile Rock
  18. Your Song
Скріншоти







Media Info
General
Complete name : E:\Torrents2\Elton John - Kyiv, 2012 June 30\VIDEO_TS\VTS_01_1.VOB
Format : MPEG-PS
File size : 1 024 MiB
Duration : 21 min 48 s
Overall bit rate mode : Variable
Overall bit rate : 6 567 kb/s

Video
ID : 224 (0xE0)
Format : MPEG Video
Format version : Version 2
Format profile : [email protected]
Format settings, BVOP : Yes
Format settings, Matrix : Custom
Format settings, GOP : Variable
Format settings, picture struc : Frame
Duration : 21 min 48 s
Bit rate mode : Variable
Bit rate : 6 180 kb/s
Maximum bit rate : 15.0 Mb/s
Width : 704 pixels
Height : 576 pixels
Display aspect ratio : 4:3
Frame rate : 25.000 FPS
Standard : PAL
Color space : YUV
Chroma subsampling : 4:2:0
Bit depth : 8 bits
Scan type : Interlaced
Scan order : Top Field First
Compression mode : Lossy
Bits/(Pixel*Frame) : 0.610
Time code of first frame : 00:00:00:00
Time code source : Group of pictures header
GOP, Open/Closed : Open
GOP, Open/Closed of first fram : Closed
Stream size : 964 MiB (94%)

Audio
ID : 189 (0xBD)-128 (0x80)
Format : AC-3
Format/Info : Audio Coding 3
Format settings, Endianness : Big
Muxing mode : DVD-Video
Duration : 21 min 47 s
Bit rate mode : Constant
Bit rate : 256 kb/s
Channel(s) : 2 channels
Channel positions : Front: L R
Sampling rate : 48.0 kHz
Frame rate : 31.250 FPS (1536 SPF)
Bit depth : 16 bits
Compression mode : Lossy
Stream size : 39.9 MiB (4%)
Service kind : Complete Main

Menu


 Трекер:    Зареєстрований   

Завантажити / скачати кліп українською



відео для новачків



 Зареєстрований:   2019-06-29 12:44
 Розмір:   4.36 GB 
 Оцінка кліпу:   -/10 (Голосів: 0)
   
Ваш часовий пояс: GMT + 2 Години

Нова тема   Відповісти