Скарб Срібного озера / Der Schatz im Silbersee (1962) Remux 1080p [Remastered] Ukr/Ger | Sub Ger

Нові коментарі

Нова тема   Відповісти
Останній раз роздавалося MakRA (2020-09-21)
Автор Повідомлення
MakRA 
VIP


З нами з: 11.11.18
Востаннє: 20.09.20
Повідомлень: 1119

2019-06-28 22:31  
Скарб Срібного озера / Der Schatz im Silbersee (1962) Remux 1080p [Remastered] Ukr/Ger | Sub Ger


Альтернативні обкладинки та постери:



Жанр: вестерн, пригодницький
Країна: Німеччина (ФРН), Югославія, Франція



Кінокомпанія: Rialto Film Preben-Philipsen, Jadran Film, Société Nouvelle de Cinématographie (SNC)
Режисер: Гаральд Райнл [Harald Reinl]
Актори: Лекс Баркер [Lex Barker], П'єр Луї ле Бріс [Pierre Louis Le Bris], Герберт Лом [Herbert Lom], Ґец Ґеорґе [Götz George], Карін Дор [Karin Dor], Маріанне Гопе [Marianne Hoppe], Еді Арент [Eddi Arent], Ральф Вольтер [Ralf Wolter], Сіма Яніціжевіч [Sima Janicijevic], Ілія Івезіч [Ilija Ivezic], Мірко Боман [Mirko Boman]

Сюжет:
Фільм, за романом Карла Мая, розповідає про пригоди індіанця Вінету і його білого друга Шаттерхенда.
Вінету і Шаттерхенд вирішили допомогти ковбоєві Фреду, батька якого убив злочинець Корнель через план казкових багатств на Срібній озері, і другові вбитого - Петерсону - розшукати скарби. Корнель переслідує ту ж мету...


Тривалість: 01:51:03
Якість: Remux 1080p
Відео:
кодек:
розмір кадру: 1920 х 1080
бітрейт: 19,3 Mб/с

Аудіо # 1:
мова: українська
переклад: двоголосий закадровий
кодек: 2.0
бітрейт: 192 кб/с

Аудіо # 2:
мова: німецька
переклад: оригінал
кодек: -HD MA 5.1
бітрейт: 1877 кб/с

Аудіо # 3:
мова: німецька
переклад: оригінал
кодек: 2.0
бітрейт: 318 кб/с

Аудіо # 4:
мова: німецька
переклад: оригінал
кодек: 2.0
бітрейт: 192 кб/с

Субтитри # 1: (Full)
мова: німецька
тип: пререндерні
формат: pgs

Субтитри # 2: (Full)
мова: англійська
тип: пререндерні
формат: pgs
Info
General
Unique ID : 59552883951700443609203402399264669092 (0x2CCD77DF1522F1BF8C144971D265FDA4)
Complete name : F:\Вестерни\+ Цикл -Віннету-\Der Schatz im Silbersee (1962) Remux 1080p UkrGer Sub Ger [Hurtom].
Format :
Format version : Version 4 / Version 2
File size : 17.0 GiB
Duration : 1 h 51 min
Overall bit rate mode : Variable
Overall bit rate : 21.9 Mb/s
Movie name : Скарб Срібного озера / Der Schatz im Silbersee (1962) Remux 1080p Ukr/Ger | Sub Ger [Hurtom]
Encoded date : UTC 2019-06-28 17:28:05
Writing application : v25.0.0 ('Prog Noir') 64-bit
Writing library : libebml v1.3.6 + v1.4.9

Video
ID : 1
Format : AVC
Format/Info : Advanced Video Codec
Format profile : [email protected]
Format settings, CABAC : Yes
Format settings, RefFrames : 4 frames
Codec ID : V_MPEG4/ISO/AVC
Duration : 1 h 51 min
Bit rate mode : Variable
Bit rate : 19.3 Mb/s
Maximum bit rate : 38.0 Mb/s
Width : 1 920 pixels
Height : 1 080 pixels
Display aspect ratio : 16:9
Frame rate mode : Constant
Frame rate : 23.976 (24000/1001) FPS
Color space : YUV
Chroma subsampling : 4:2:0
Bit depth : 8 bits
Scan type : Progressive
Bits/(Pixel*Frame) : 0.388
Stream size : 14.9 GiB (88%)
Title : Der Schatz im Silbersee (1962) Remux 1080p Ukr/Ger | Sub Ger [Hurtom]
Language : Ukrainian
Default : Yes
Forced : Yes
Color range : Limited
Color primaries : BT.709
Transfer characteristics : BT.709
Matrix coefficients : BT.709

Audio #1
ID : 2
Format : AC-3
Format/Info : Audio Coding 3
Format settings, Endianness : Big
Codec ID : A_AC3
Duration : 1 h 51 min
Bit rate mode : Constant
Bit rate : 192 kb/s
Channel(s) : 2 channels
Channel positions : Front: L R
Sampling rate : 48.0 kHz
Frame rate : 31.250 FPS (1536 SPF)
Bit depth : 16 bits
Compression mode : Lossy
Stream size : 153 MiB (1%)
Title : DVO [ENTER] [K1] 2.0
Language : Ukrainian
Service kind : Complete Main
Default : Yes
Forced : Yes

Audio #2
ID : 3
Format :
Format/Info : Digital Theater Systems
Format profile : MA / Core
Mode : 16
Format settings, Endianness : Big
Codec ID : A_DTS
Duration : 1 h 51 min
Bit rate mode : Variable / Constant
Bit rate : 1 877 kb/s / 1 509 kb/s
Channel(s) : 6 channels
Channel positions : Front: L C R, Side: L R, LFE
Sampling rate : 48.0 kHz
Frame rate : 93.750 FPS (512 SPF)
Bit depth : 16 bits
Compression mode : Lossless / Lossy
Stream size : 1.46 GiB (9%)
Title : Original -HD MA 5.1
Language : German
Default : No
Forced : No

Audio #3
ID : 4
Format :
Format/Info : Digital Theater Systems
Mode : 16
Format settings, Endianness : Big
Codec ID : A_DTS
Duration : 1 h 51 min
Bit rate mode : Constant
Bit rate : 318 kb/s
Channel(s) : 2 channels
Channel positions : Front: L R
Sampling rate : 48.0 kHz
Frame rate : 93.750 FPS (512 SPF)
Bit depth : 16 bits
Compression mode : Lossy
Stream size : 253 MiB (1%)
Title : Original 2.0
Language : German
Default : No
Forced : No

Audio #4
ID : 5
Format : AC-3
Format/Info : Audio Coding 3
Format settings, Endianness : Big
Codec ID : A_AC3
Duration : 1 h 51 min
Bit rate mode : Constant
Bit rate : 192 kb/s
Channel(s) : 2 channels
Channel positions : Front: L R
Sampling rate : 48.0 kHz
Frame rate : 31.250 FPS (1536 SPF)
Bit depth : 16 bits
Compression mode : Lossy
Stream size : 153 MiB (1%)
Title : Original 2.0
Language : German
Service kind : Complete Main
Default : No
Forced : No

Text #1
ID : 6
Format : PGS
Muxing mode : zlib
Codec ID : S_HDMV/PGS
Codec ID/Info : Picture based subtitle format used on BDs/HD-DVDs
Duration : 1 h 45 min
Bit rate : 30.3 kb/s
Count of elements : 1427
Stream size : 22.9 MiB (0%)
Title : Ger (Full)
Language : German
Default : No
Forced : No

Text #2
ID : 7
Format : PGS
Muxing mode : zlib
Codec ID : S_HDMV/PGS
Codec ID/Info : Picture based subtitle format used on BDs/HD-DVDs
Duration : 1 h 45 min
Bit rate : 27.7 kb/s
Count of elements : 1342
Stream size : 20.9 MiB (0%)
Title : Eng (Full)
Language : English
Default : No
Forced : No
Скріншоти
Джерело: &
Особиста оцінка: 10 - без зайвих вагань рекомендую всім!
Велика подяка пану Neytreenor за запис та п. Arsenfpu за синхронізацію .


Золотий реліз (завантажене не впливає на рейтинг)
 Трекер:    Зареєстрований   

Завантажити / скачати фільм українською



відео для новачків



 Зареєстрований:   2019-06-28 22:31
 Розмір:   16.97 GB 
 Оцінка фільму:   10/10 (Голосів: 8)
   
MakRA 
VIP


З нами з: 11.11.18
Востаннє: 20.09.20
Повідомлень: 1119

2019-06-28 22:48  
Далі буде...
Oleksa9 
VIP


З нами з: 17.05.12
Востаннє: 20.09.20
Повідомлень: 412

2019-10-12 15:00  
щьоб -> аби
дочька -> донька
наказав -> покарав
зустрічяємося, щьо, нещядній, щьось, кращього, чюжинця, щє, чясом, дещьо, чюв, пощястило, навіщьо, щьось, вибачь, найкращій, чястку, вчясно, заручьники, якщьо, щясти, чяс, позначяють, помщюся, кращє, чьоловіки, чястину, ущєлина, втечєш, ліворучь, праворучь, пощядити, чюдовий

Ваш часовий пояс: GMT + 2 Години

Нова тема   Відповісти