Легіон (Сезон 3) / Legion (Season 3) (2019) 720p Eng | sub Ukr

Нові коментарі

Нова тема   Відповісти
Автор Повідомлення
pskrm 
Свій


З нами з: 03.03.17
Востаннє: 31.01.20
Повідомлень: 113

2019-06-28 18:14  
Легіон (Сезон 3) / Legion (Season 3) (2019) 720p Eng | sub Ukr

Легіон (Сезон 3) / Legion (Season 3) (2019) 720p Eng | sub Ukr


Жанр: драма, екшн, фантастика
Країна: США



Кінокомпанія: Marvel Television
Режисер: Ной Гоулі
Актори: Ден Стівенс, Рейчел Келлер, Обрі Плаза

Сюжет:
Невпевнений Девід, який боїться себе самого, залишився в минулому. Він навчився контролювати особистості і користуватися їхніми можливостями. Нові таланти йому не завадять, адже протистояння з Фаруком – битва не сам на сам.


Тривалість: 00:50:00
Перелік серій

01. Chapter 20 / Глава 20
02. Chapter 21 / Глава 21
03. Chapter 22 / Глава 22
04. Chapter 23 / Глава 23
05. Chapter 24 / Глава 24
06. Chapter 25 / Глава 25
07. Chapter 26 / Глава 26
08. Chapter 27 / Глава 27
Якість:
Відео:
кодек:
розмір кадру: 1280 х 720
бітрейт: 4169 кб/с

Аудіо:
мова: англійська
переклад: оригінал
кодек: 2.0
бітрейт: 159 кб/с

Субтитри:
мова: українська
тип: програмні (м'які)
формат: *.srt

Субтитри :власний переклад
Info

General
Complete name : G:\Files\TBA\Legion\Legion.Season.3\Legion.s03e01.mp4
Format : MPEG-4
Format profile : Base Media / Version 2
Codec ID : mp42 (isom/iso2/avc1/mp41)
File size : 1.50 GiB
Duration : 49 min 30 s
Overall bit rate mode : Variable
Overall bit rate : 4 335 kb/s
Encoded date : UTC 2019-06-28 13:19:15
Tagged date : UTC 2019-06-28 13:19:15
Writing application : HandBrake 1.1.2 2018090500

Video
ID : 1
Format : AVC
Format/Info : Advanced Video Codec
Format profile : [email protected]
Format settings : CABAC / 5 Ref Frames
Format settings, CABAC : Yes
Format settings, RefFrames : 5 frames
Codec ID : avc1
Codec ID/Info : Advanced Video Coding
Duration : 49 min 30 s
Bit rate : 4 169 kb/s
Width : 1 280 pixels
Height : 720 pixels
Display aspect ratio : 16:9
Frame rate mode : Variable
Frame rate : 24.095 FPS
Minimum frame rate : 24.090 FPS
Maximum frame rate : 24.096 FPS
Color space : YUV
Chroma subsampling : 4:2:0
Bit depth : 8 bits
Scan type : Progressive
Bits/(Pixel*Frame) : 0.188
Stream size : 1.44 GiB (96%)
Writing library : core 155 r2901 7d0ff22
Encoding settings : cabac=1 / ref=5 / deblock=1:0:0 / analyse=0x1:0x111 / me=hex / subme=8 / psy=1 / psy_rd=1.00:0.00 / mixed_ref=1 / me_range=16 / chroma_me=1 / trellis=2 / 8x8dct=0 / cqm=0 / deadzone=21,11 / fast_pskip=1 / chroma_qp_offset=-2 / threads=6 / lookahead_threads=1 / sliced_threads=0 / nr=0 / decimate=1 / interlaced=0 / bluray_compat=0 / constrained_intra=0 / bframes=3 / b_pyramid=2 / b_adapt=1 / b_bias=0 / direct=3 / weightb=1 / open_gop=0 / weightp=2 / keyint=240 / keyint_min=24 / scenecut=40 / intra_refresh=0 / rc_lookahead=50 / rc=crf / mbtree=1 / crf=15.0 / qcomp=0.60 / qpmin=0 / qpmax=69 / qpstep=4 / vbv_maxrate=20000 / vbv_bufsize=25000 / crf_max=0.0 / nal_hrd=none / filler=0 / ip_ratio=1.40 / aq=1:1.00
Encoded date : UTC 2019-06-28 13:19:15
Tagged date : UTC 2019-06-28 13:19:15
Color range : Limited
Color primaries : BT.709
Transfer characteristics : BT.709
Matrix coefficients : BT.709
Codec configuration box : avcC

Audio
ID : 2
Format : LC
Format/Info : Advanced Audio Codec Low Complexity
Codec ID : mp4a-40-2
Duration : 49 min 30 s
Bit rate mode : Variable
Bit rate : 159 kb/s
Channel(s) : 2 channels
Channel layout : L R
Sampling rate : 48.0 kHz
Frame rate : 46.875 FPS (1024 SPF)
Compression mode : Lossy
Stream size : 56.4 MiB (4%)
Title : Stereo / Stereo
Language : English
Default : Yes
Alternate group : 1
Encoded date : UTC 2019-06-28 13:19:15
Tagged date : UTC 2019-06-28 13:19:15

Text
ID : 3
Format : Timed Text
Muxing mode : sbtl
Codec ID : tx3g
Duration : 47 min 25 s
Bit rate mode : Variable
Bit rate : 52 b/s
Stream size : 18.2 KiB (0%)
Language : Ukrainian
Default : Yes
Forced : No
Alternate group : 3
Encoded date : UTC 2019-06-28 13:19:15
Tagged date : UTC 2019-06-28 13:19:15
Скріншоти


Джерело:
Особиста оцінка: 8 - мені сподобалося


Золотий реліз (завантажене не впливає на рейтинг)
 Трекер:    Зареєстрований   

Завантажити / скачати серіал українською



відео для новачків



 Зареєстрований:   2019-09-16 10:08
 Розмір:   10.02 GB 
 Оцінка серіалу:   9.9/10 (Голосів: 12)
   
leicheman 
Відео Гуртом - фільмокрай
Відео Гуртом - фільмокрай


З нами з: 03.07.14
Востаннє: 18.02.20
Повідомлень: 4445

2019-06-28 19:34  
От би ще НЗП почали знову його звучити
pskrm 
Свій


З нами з: 03.03.17
Востаннє: 31.01.20
Повідомлень: 113

2019-07-11 10:00  
Реліз оновлено!

Додано 2 серію!

leicheman 
Відео Гуртом - фільмокрай
Відео Гуртом - фільмокрай


З нами з: 03.07.14
Востаннє: 18.02.20
Повідомлень: 4445

2019-07-13 15:02  
1. серія не перекладено з 28:47 - 30:00 (урок для мандрівників у часі на касеті)
_hellisa 
Свій


З нами з: 26.02.17
Востаннє: 16.02.20
Повідомлень: 126

2019-07-13 15:04  
leicheman
Дякуємо. Оновимо та перезаллємо з наступною серією.

leicheman 
Відео Гуртом - фільмокрай
Відео Гуртом - фільмокрай


З нами з: 03.07.14
Востаннє: 18.02.20
Повідомлень: 4445

2019-07-13 15:21  
_hellisa написано:
Оновимо та перезаллємо з наступною серією.


також оновіть відеоряд до 2 серії, там не правильно виставили Display aspect ratio

pskrm 
Свій


З нами з: 03.03.17
Востаннє: 31.01.20
Повідомлень: 113

2019-07-31 15:19  
Реліз оновлено!

Додано 3 серію!

pskrm 
Свій


З нами з: 03.03.17
Востаннє: 31.01.20
Повідомлень: 113

2019-08-08 12:30  
Реліз оновлено!

Додано 4 серію!

pskrm 
Свій


З нами з: 03.03.17
Востаннє: 31.01.20
Повідомлень: 113

2019-08-17 11:15  
Реліз оновлено!

Додано 5 серію!

pskrm 
Свій


З нами з: 03.03.17
Востаннє: 31.01.20
Повідомлень: 113

2019-08-21 14:53  
Реліз оновлено!

Додано 6 серію!

igor911 
Модератор відео


З нами з: 18.01.08
Востаннє: 18.02.20
Повідомлень: 14112

2019-08-22 17:38  
В усіх серіях (крім 4-ї) нестандартний fps: 24,095 - 24,099
pskrm 
Свій


З нами з: 03.03.17
Востаннє: 31.01.20
Повідомлень: 113

2019-09-03 08:41  
Реліз оновлено!

Додано 7 серію!

pskrm 
Свій


З нами з: 03.03.17
Востаннє: 31.01.20
Повідомлень: 113

2019-09-16 10:09  
Реліз оновлено!

Додано 8 серію!

Третій сезон повністю!

Ваш часовий пояс: GMT + 2 Години

Нова тема   Відповісти