Чорнобиль (Сезон 1) / Chernobyl (Season 1) (2019) 1080p 2xUkr/Eng | Sub Eng

Нові коментарі

Нова тема   Відповісти
Автор Повідомлення
Anonymous 







2019-06-28 14:24  
Чорнобиль (Сезон 1) / Chernobyl (Season 1) (2019) 1080p 2xUkr/Eng | Sub Eng

Чорнобиль (Сезон 1) / Chernobyl (Season 1) (2019) 1080p 2xUkr/Eng | Sub Eng


Жанр: історична драма
Країна: США, Велика Британія
Кінокомпанія: HBO, Sky Television
Режисер: Йоган Ренк / Johan Renck
Актори: Джаред Гарріс / Jared Harris, Стеллан Скашгорд / Stellan Skarsgård, Емілі Вотсон / Emily Watson, Пол Ріттер / Paul Ritter, Джессі Баклі / Jessie Buckley, Едріан Роллінс / Adrian Rawlins, Кон О'Ніл / Con O'Neill, Ральф Інесон / Ralph Ineson, Давид Денсік / David Dencik, Адам Нагайтіс / Adam Nagaitis та інші

Сюжет:
Британсько-американський історичний драматичний телевізійний міні-серіал від HBO. Події розгортаються після вибуху реактора на ЧАЕС у 1986 році. Головні герої спробують пояснити, чому трапилася катастрофа. Також у серіалі зображено евакуацію мешканців та хід рятувальної операції.

Тривалість: 1 серія: ~60 ÷ 72 хв. (цілком серій: 5)
Перелік серій, дата трансляції у США
1. 1:23:45, 06.05.19
2. Please Remain Calm, 13.05.19
3. Open Wide, O Earth, 20.05.19
4. The Happiness of All Mankind, 27.05.19
5. Vichnaya Pamyat, 03.06.19
Якість:
Відео:
кодек:
розмір кадру: 1920 x 1080
бітрейт: 9088 кб/с

Аудіо # 1:
мова: українська
переклад: професійний дубльований
кодек: AC-3 2.0 [стерео]
бітрейт: 192 кб/с

Аудіо # 2:
мова: українська
переклад: багатоголосий закадровий | студія НеЗупиняйПродакшн
кодек: AC-3 5.1
бітрейт: 640 кб/с

Аудіо # 3:
мова: англійська
переклад: оригінал
кодек: E-AC-3 5.1
бітрейт: 640 кб/с

Субтитри # 1: (Forced, by Петров Микола)
мова: українська
тип: програмні (м'які)
формат: *.srt

Субтитри # 2-3: (Повні, SDH)
мова: англійська,
тип: програмні (м'які)
формат: *.srt


Info
Код:
General
Unique ID                                : 317381354070036165963861406554486155183 (0xEEC56CE459F1E1007171EFBA45A327AF)
Complete name                            : 01. Chernobyl (2019) - S01E01 - 1080p [2xUKR_ENG] [Hurtom].
Format                                   :
Format version                           : Version 4
File size                                : 4.44 GiB
Duration                                 : 1 h 0 min
Overall bit rate                         : 10.6 Mb/s
Movie name                               : Chernobyl (2019) - S01E01 - 1:23:45
Encoded date                             : UTC 2019-07-02 19:56:47
Writing application                      : v20.0.0 ('I Am The Sun') 64-bit
Writing library                          : libebml v1.3.5 + v1.4.8
Cover                                    : Yes
Attachments                              : cover.jpg

Video
ID                                       : 1
Format                                   : AVC
Format/Info                              : Advanced Video Codec
Format profile                           : [email protected]
Format settings                          : CABAC / 4 Ref Frames
Format settings, CABAC                   : Yes
Format settings, RefFrames               : 4 frames
Codec ID                                 : V_MPEG4/ISO/AVC
Duration                                 : 1 h 0 min
Bit rate mode                            : Constant
Bit rate                                 : 9 088 kb/s
Nominal bit rate                         : 10 000 kb/s
Width                                    : 1 920 pixels
Height                                   : 1 080 pixels
Display aspect ratio                     : 16:9
Frame rate mode                          : Constant
Frame rate                               : 23.976 (24000/1001) FPS
Color space                              : YUV
Chroma subsampling                       : 4:2:0
Bit depth                                : 8 bits
Scan type                                : Progressive
Bits/(Pixel*Frame)                       : 0.183
Stream size                              : 3.82 GiB (86%)
Title                                    : Chernobyl (2019) - S01E01 - 1:23:45
Language                                 : English
Default                                  : Yes
Forced                                   : No
Color range                              : Limited
Color primaries                          : BT.709
Transfer characteristics                 : BT.709
Matrix coefficients                      : BT.709

Audio #1
ID                                       : 2
Format                                   : AC-3
Format/Info                              : Audio Coding 3
Commercial name                          : Dolby Digital
Codec ID                                 : A_AC3
Duration                                 : 1 h 0 min
Bit rate mode                            : Constant
Bit rate                                 : 192 kb/s
Channel(s)                               : 2 channels
Channel layout                           : L R
Sampling rate                            : 48.0 kHz
Frame rate                               : 31.250 FPS (1536 SPF)
Bit depth                                : 16 bits
Compression mode                         : Lossy
Stream size                              : 82.7 MiB (2%)
Title                                    : ПД - 1+1 - 2.0 192 Kbps
Language                                 : Ukrainian
Service kind                             : Complete Main
Default                                  : Yes
Forced                                   : Yes

Audio #2
ID                                       : 3
Format                                   : AC-3
Format/Info                              : Audio Coding 3
Commercial name                          : Dolby Digital
Codec ID                                 : A_AC3
Duration                                 : 1 h 0 min
Bit rate mode                            : Constant
Bit rate                                 : 640 kb/s
Channel(s)                               : 6 channels
Channel layout                           : L R C LFE Ls Rs
Sampling rate                            : 48.0 kHz
Frame rate                               : 31.250 FPS (1536 SPF)
Bit depth                                : 16 bits
Compression mode                         : Lossy
Stream size                              : 276 MiB (6%)
Title                                    : БЗ - НеЗупиняйПродакшн - 5.1 640 Kbps
Language                                 : Ukrainian
Service kind                             : Complete Main
Default                                  : No
Forced                                   : No

Audio #3
ID                                       : 4
Format                                   : E-AC-3
Format/Info                              : Enhanced AC-3
Commercial name                          : Dolby Digital Plus
Codec ID                                 : A_EAC3
Duration                                 : 1 h 0 min
Bit rate mode                            : Constant
Bit rate                                 : 640 kb/s
Channel(s)                               : 6 channels
Channel layout                           : L R C LFE Ls Rs
Sampling rate                            : 48.0 kHz
Frame rate                               : 31.250 FPS (1536 SPF)
Compression mode                         : Lossy
Delay relative to video                  : 24 ms
Stream size                              : 276 MiB (6%)
Title                                    : Original - E- 5.1 640 Kbps
Language                                 : English
Service kind                             : Complete Main
Default                                  : No
Forced                                   : No

Text #1
ID                                       : 5
Format                                   : UTF-8
Codec ID                                 : S_TEXT/UTF8
Codec ID/Info                            : UTF-8 Plain Text
Duration                                 : 56 min 15 s
Bit rate                                 : 1 b/s
Count of elements                        : 14
Stream size                              : 602 Bytes (0%)
Title                                    : Forced
Language                                 : Ukrainian
Default                                  : Yes
Forced                                   : Yes

Text #2
ID                                       : 6
Format                                   : UTF-8
Codec ID                                 : S_TEXT/UTF8
Codec ID/Info                            : UTF-8 Plain Text
Duration                                 : 59 min 46 s
Bit rate                                 : 45 b/s
Count of elements                        : 639
Stream size                              : 19.9 KiB (0%)
Title                                    : Full
Language                                 : English
Default                                  : No
Forced                                   : No

Text #3
ID                                       : 7
Format                                   : UTF-8
Codec ID                                 : S_TEXT/UTF8
Codec ID/Info                            : UTF-8 Plain Text
Duration                                 : 59 min 46 s
Bit rate                                 : 45 b/s
Count of elements                        : 674
Stream size                              : 20.1 KiB (0%)
Title                                    : SDH
Language                                 : English
Default                                  : No
Forced                                   : No
Світлини




Джерело: &
Особиста оцінка: 0 - не дивився

У релізі використано виправлені доріжки від 1+1 та НеЗупиняйПродакшн




Золотий реліз (завантажене не впливає на рейтинг)
 Трекер:    Зареєстрований   

Завантажити / скачати серіал українською



відео для новачків



 Зареєстрований:   2019-07-02 23:20
 Розмір:   24.11 GB 
 Оцінка серіалу:   10/10 (Голосів: 24)
   
jaral 
Відео Гуртом - підтримка та поширення
Відео Гуртом - підтримка та поширення


З нами з: 18.10.07
Востаннє: 23.08.19
Повідомлень: 802

2019-06-28 17:07  
Дякую за виправлення; питаннячко, буде реліз з українізованим відеорядом художнього мінісеріалу, де зображені події, які відбуваються в Україні?
NeetScrool 
Відео Гуртом - фільмокрай
Відео Гуртом - фільмокрай


З нами з: 10.01.13
Востаннє: 23.08.19
Повідомлень: 2985

2019-06-29 20:32  
А де загубили озвучку Дніпра?
Anonymous 







2019-06-29 20:37  
NeetScrool написано:
А де загубили озвучку Дніпра?

А де її можна знайти?

NeetScrool 
Відео Гуртом - фільмокрай
Відео Гуртом - фільмокрай


З нами з: 10.01.13
Востаннє: 23.08.19
Повідомлень: 2985

2019-06-29 20:39  
Anonymous
В їхньому телеграмі

Anonymous 







2019-06-29 21:03  
NeetScrool
Файли з рекламою, хіба ні?

NeetScrool 
Відео Гуртом - фільмокрай
Відео Гуртом - фільмокрай


З нами з: 10.01.13
Востаннє: 23.08.19
Повідомлень: 2985

2019-06-30 17:27  
Anonymous
А вирізати що заважає?

Anonymous 







2019-06-30 17:32  
NeetScrool
Те, що я не вмію цього робити)
Плюс, доріжки дуже поганої якості.

igor911 
Модератор відео


З нами з: 18.01.08
Востаннє: 24.08.19
Повідомлень: 13167

2019-06-30 17:44  
NeetScrool написано:
А вирізати що заважає?

змінний fps, яким вони "захищаються" від Толоки https://toloka.to/t101581#1101478

Петров Микола 
VIP


З нами з: 15.08.14
Востаннє: 24.08.19
Повідомлень: 574

2019-07-02 20:44  
Форсовані українські субтири(До написів):
https://mega.nz/#F!6RYS3CgI!-JhUq1OwAqkOpG2ZjMJDlw

Anonymous 







2019-07-02 23:21  
Петров Микола
Дякую! Зараз додам.

Додано через 22 хвилини 24 секунди:

Додано форсовані субтитри.

Nevodex 
Новенький


З нами з: 07.03.17
Востаннє: 14.07.19
Повідомлень: 11

2019-07-06 21:28  
В якій озвучці порадите дивитись?
IcedFREELANCER 
Новенький


З нами з: 20.01.17
Востаннє: 27.07.19
Повідомлень: 1

2019-07-08 13:57  
Nevodex
пораджу варіант від 1+1 , мені досить сподобався

ibogdan 
Новенький


З нами з: 27.02.13
Востаннє: 23.07.19
Повідомлень: 1

2019-07-11 14:10  
НеЗупиняйПродакшн молодці - дуже професійно озвучили!
джентельмен 
Новенький


З нами з: 05.02.19
Востаннє: 01.08.19
Повідомлень: 3

2019-08-01 10:55  
всім привіт! при закачуванні серіала(цілий файл/по одній серії) програма террент видає помилку.
підкажіть будь ласка це проблема програми чи що інше?

igor911 
Модератор відео


З нами з: 18.01.08
Востаннє: 24.08.19
Повідомлень: 13167

2019-08-01 10:59  
джентельмен написано:
програма террент видає помилку

думаєш тут є телепати? яку помилку?

Додано через 2 хвилини 35 секунд:

перше, що приходить в голову - що ти намагаєшся зберегти файли понад 4 Гб на диск з ФС FAT32 (обмеження на розмір до 4 Гб).

джентельмен 
Новенький


З нами з: 05.02.19
Востаннє: 01.08.19
Повідомлень: 3

2019-08-01 14:57  
igor911 дякую) все норм просто виявилося що мало місця на диску D
Ваш часовий пояс: GMT + 2 Години

Нова тема   Відповісти