Капітан Марвел / Captain Marvel (2019) [IMAX] 1080p H.265 Ukr/Eng | Sub Eng

Нові коментарі

Нова тема   Відповісти
Автор Повідомлення
Anonymous 







2019-06-28 13:43  
Капітан Марвел / Captain Marvel (2019) [IMAX] 1080p H.265 Ukr/Eng | Sub Eng

Капітан Марвел / Captain Marvel (2019) [IMAX] 1080p H.265 Ukr/Eng | Sub Eng

Жанр: пригоди, фантастика, екшн
Країна: США
Кінокомпанія: Walt Disney Pictures, Marvel Studios
Режисер: Анна Боден, Раян Флек
Актори: Брі Ларсон, Семюел Л. Джексон, Бен Мендельсон, Джуд Лоу, Аннетт Бенінг, Лашана Лінч, Кларк Грегг, Джемма Чан

Сюжет:
Колись Керол Денверс жила на Землі та була пілотом ВПС США. У неї було важке дитинство, вона пройшла багато, щоб стати тою, ким стала. І всього цього дівчина майже не пам'ятає. Виною тому одна аварія, яка ледь не забрала її життя. Врятували Керол інопланетяни з раси Крії. Вони вирішили дати дівчині своєї крові, прийнявши до своєї раси та зробивши її ідеальним бійцем у війні з іншою жорстокої расою Скруллів. Керол має суперсили: вона невразлива, може літати та створює потужні потоки енергії. Коли полем битви двох рас стає Земля, дівчина починає згадувати своє минуле життя. Від Керол залежить доля Землі і раси Крії, адже вона одна з наймогутніших істот у Всесвіті.

Тривалість: 02:03:42
Якість:
Відео:
кодек: H.265 (HEVC)
розмір кадру: 1920 x 1080
бітрейт: 6 888 кб/с
бітова глибина: 10 біт
Увага! Перед завантаженням переконайтесь, що ваш пристрій відтворення (та/або ПЗ) підтримує H.265 (HEVC)

Аудіо # 1:
мова: українська
переклад: професійний дубльований | студія LeDoyen
кодек: 5.1
бітрейт: 1510 кб/с

Аудіо # 2:
мова: англійська
переклад: оригінал
кодек: 5.1
бітрейт: 1510 кб/с

Субтитри # 1:
мова: українська (Forced),
тип: програмні (м'які)
формат: *.srt

Субтитри # 2-3: (Full, SDH)
мова: англійська,
тип: програмні (м'які)
формат: *.srt


Info
Код:
General
Unique ID                                : 197418071286017570716834505450131647417 (0x94855666BF2D4C52322194C193296BB9)
Complete name                            : Captain Marvel (2019) [IMAX] 1080p H.265 [UKR_ENG] [Hurtom].
Format                                   :
Format version                           : Version 4
File size                                : 8.56 GiB
Duration                                 : 2 h 3 min
Overall bit rate                         : 9 910 kb/s
Movie name                               : Капітан Марвел / Captain Marvel (2019) [IMAX]
Encoded date                             : UTC 2019-06-27 22:43:28
Writing application                      : v20.0.0 ('I Am The Sun') 64-bit
Writing library                          : libebml v1.3.5 + v1.4.8
Cover                                    : Yes
Attachments                              : Cover.jpg

Video
ID                                       : 1
Format                                   : HEVC
Format/Info                              : High Efficiency Video Coding
Format profile                           : Main [email protected]@High
Codec ID                                 : V_MPEGH/ISO/HEVC
Duration                                 : 2 h 3 min
Bit rate                                 : 6 888 kb/s
Width                                    : 1 920 pixels
Height                                   : 1 080 pixels
Display aspect ratio                     : 16:9
Frame rate mode                          : Constant
Frame rate                               : 23.976 (24000/1001) FPS
Color space                              : YUV
Chroma subsampling                       : 4:2:0
Bit depth                                : 10 bits
Bits/(Pixel*Frame)                       : 0.139
Stream size                              : 5.95 GiB (70%)
Title                                    : Капітан Марвел / Captain Marvel (2019) [IMAX]
Language                                 : English
Default                                  : Yes
Forced                                   : No
Color range                              : Limited
Color primaries                          : BT.709
Transfer characteristics                 : BT.709
Matrix coefficients                      : BT.709

Audio #1
ID                                       : 2
Format                                   :
Format/Info                              : Digital Theater Systems
Codec ID                                 : A_DTS
Duration                                 : 2 h 3 min
Bit rate mode                            : Constant
Bit rate                                 : 1 509 kb/s
Channel(s)                               : 6 channels
Channel layout                           : C L R Ls Rs LFE
Sampling rate                            : 48.0 kHz
Frame rate                               : 93.750 FPS (512 SPF)
Bit depth                                : 24 bits
Compression mode                         : Lossy
Stream size                              : 1.30 GiB (15%)
Title                                    : ПД - LeDoyen studio - 5.1 @ 1536 kbps
Language                                 : Ukrainian
Default                                  : Yes
Forced                                   : Yes

Audio #2
ID                                       : 3
Format                                   :
Format/Info                              : Digital Theater Systems
Codec ID                                 : A_DTS
Duration                                 : 2 h 3 min
Bit rate mode                            : Constant
Bit rate                                 : 1 509 kb/s
Channel(s)                               : 6 channels
Channel layout                           : C L R Ls Rs LFE
Sampling rate                            : 48.0 kHz
Frame rate                               : 93.750 FPS (512 SPF)
Bit depth                                : 24 bits
Compression mode                         : Lossy
Stream size                              : 1.30 GiB (15%)
Title                                    : Original - 5.1 @ 1536 kbps
Language                                 : English
Default                                  : No
Forced                                   : No

Text #1
ID                                       : 4
Format                                   : UTF-8
Codec ID                                 : S_TEXT/UTF8
Codec ID/Info                            : UTF-8 Plain Text
Duration                                 : 2 h 3 min
Bit rate                                 : 1 b/s
Count of elements                        : 32
Stream size                              : 1.53 KiB (0%)
Title                                    : Forced
Language                                 : Ukrainian
Default                                  : Yes
Forced                                   : Yes

Text #2
ID                                       : 5
Format                                   : UTF-8
Codec ID                                 : S_TEXT/UTF8
Codec ID/Info                            : UTF-8 Plain Text
Duration                                 : 1 h 53 min
Bit rate                                 : 47 b/s
Count of elements                        : 1424
Stream size                              : 39.8 KiB (0%)
Title                                    : Full
Language                                 : English
Default                                  : No
Forced                                   : No

Text #3
ID                                       : 6
Format                                   : UTF-8
Codec ID                                 : S_TEXT/UTF8
Codec ID/Info                            : UTF-8 Plain Text
Duration                                 : 2 h 2 min
Bit rate                                 : 50 b/s
Count of elements                        : 1668
Stream size                              : 45.1 KiB (0%)
Title                                    : SHD
Language                                 : English
Default                                  : No
Forced                                   : No

Menu
00:00:00.000                             : en:00:00:00.000
00:06:52.120                             : en:00:06:52.120
00:14:07.889                             : en:00:14:07.889
00:23:18.272                             : en:00:23:18.272
00:29:38.026                             : en:00:29:38.026
00:35:07.772                             : en:00:35:07.772
00:44:08.437                             : en:00:44:08.437
00:50:43.499                             : en:00:50:43.499
00:56:18.625                             : en:00:56:18.625
01:03:02.821                             : en:01:03:02.821
01:11:17.398                             : en:01:11:17.398
01:17:49.164                             : en:01:17:49.164
01:27:03.051                             : en:01:27:03.051
01:33:22.430                             : en:01:33:22.430
01:40:51.796                             : en:01:40:51.796
01:46:25.087                             : en:01:46:25.087
01:52:49.888                             : en:01:52:49.888
Світлини




Подяка пану Hanway за синхронізацію звуку

Джерело: &
Особиста оцінка: 7 - моїй подрузі не сподобалося


 Трекер:    Зареєстрований   

Завантажити / скачати фільм українською



відео для новачків



 Зареєстрований:   2019-06-28 13:43
 Розмір:   8.56 GB 
 Оцінка фільму:   7.4/10 (Голосів: 20)
   
Ваш часовий пояс: GMT + 2 Години

Нова тема   Відповісти