Морський бій / Battleship (2012) Remux 1080p 2xUkr/Eng | Sub Ukr/Eng

Нові коментарі

Нова тема   Відповісти
Автор Повідомлення
MakRA 
VIP


З нами з: 11.11.18
Востаннє: 17.10.19
Повідомлень: 434

2019-06-27 23:15  
Морський бій / Battleship (2012) Remux 1080p 2xUkr/Eng | Sub Ukr/Eng


«Битва за Землю почнеться на воді»
Українські постери:



Альтернативні постери:





Жанр: екшн, фантастика, пригодницький
Країна: США



Кінокомпанія: Universal Pictures, Hasbro, Bluegrass Films
Режисер: Пітер Берг [Peter Berg]
Актори: Тейлор Кітч [Taylor Kitsch], Александер Скарсгард [Alexander Skarsgård], Ріанна [Rihanna], Бруклін Декер [Brooklyn Decker], Таданобу Асано [Tadanobu Asano], Ліам Нісон [Liam Neeson], Джон Туї [John Tui], Грегорі Д. Гедсон [Gregory D. Gadson], Джессі Племонс [Jesse Plemons], Хаміш Лінклейтер [Hamish Linklater].

Сюжет:
Ми надсилаємо сигнали в космос і чекаємо відповіді. Але чи впевнені ми, що хочемо її отримати? Що якщо прибульці потенційно небезпечні? У 2009 році на конференції у Вашинґтоні астронавт Едгар Мітчелл, який побував на Місяці, зробив сенсаційну заяву про існування позаземного життя. Тепер ми знаємо, контакт не просто можливий, він неминучий!

Цікаве про фільм:

-Бюджет картини склав 200 мільйонів доларів. Зйомки мали розпочатися 2010 року в Голд-Кості, Австралія. Однак, через відсутність податкових поступок з боку австралійського уряду, локацію довелося змінити.

-Зйомки проходили в США на Гавайських островах Мауї і Оаху та в штаті Луізіана. Також павільйони були збудовані у Плайя-дель-Рей (Каліфорнія), де знімали сцену водіння разом з перестрілкою та Шерман-Оукс (Каліфорнія), де зроблені сцени у приміщенні.

-До роботи над фільмом були залучені наукові консультанти.

-Ветерани U.S.S. Missouri, про яких згадує Стоун Хоппер, — це реальні ветерани. Деякі з них служили під час Другої світової війни.

-Хоча вони грають американських братів у фільмі, Тейлор Кітч насправді канадець, а Александр Скарсгард — швед.

-Спектральний аналізатор, що використовується для передавання даних, — Anritsu MS2713E Spectrum Master.


Тривалість: 02:11:14
Якість: Remux 1080p
Відео:
кодек:
розмір кадру: 1920 х 1080
бітрейт: 20,2 Mб/с

Аудіо # 1:
мова: українська
переклад: професійний дубльований | Le Doyen | Line
кодек: 2.0
бітрейт: 384 кб/с

Аудіо # 2:
мова: українська
переклад: професійний дубльований | Le Doyen | Line
кодек: 5.1
бітрейт: 448 кб/с

Аудіо # 3:
мова: українська
переклад: багатоголосий закадровий
кодек: 2.0
бітрейт: 192 кб/с

Аудіо # 4:
мова: англійська
переклад: оригінал
кодек: -HD MA 5.1
бітрейт: 4172 кб/с

Аудіо # 5:
мова: англійська
переклад: оригінал
кодек: 5.1
бітрейт: 640 кб/с

Субтитри # 1-2: (Forsed), (Full)
мова: українська
тип: програмні (м'які)
формат: *.srt

Субтитри # 3-5: (Full), (SHD), (SDH Colored)
мова: англійська
тип: програмні (м'які)
формат: *.srt

Збережено оригінальні розділи, як на Blu-ray.
Info
General
Unique ID : 269419752751879298312195789708783564234 (0xCAB05B60A4F0C8141B7D64DF79D8B5CA)
Complete name : F:\Бойовик, фантастика\Battleship (2012) Remux 1080p 2xUkrEng Sub UkrEng [Hurtom].
Format :
Format version : Version 4 / Version 2
File size : 23.8 GiB
Duration : 2 h 11 min
Overall bit rate mode : Variable
Overall bit rate : 26.0 Mb/s
Movie name : Морський бій / Battleship (2012) Remux 1080p 2xUkr/Eng | Sub Ukr/Eng [Hurtom]
Encoded date : UTC 2019-06-27 17:46:01
Writing application : v25.0.0 ('Prog Noir') 64-bit
Writing library : libebml v1.3.6 + v1.4.9

Video
ID : 1
Format : AVC
Format/Info : Advanced Video Codec
Format profile : [email protected]
Format settings, CABAC : Yes
Format settings, RefFrames : 4 frames
Format settings, GOP : M=3, N=12
Codec ID : V_MPEG4/ISO/AVC
Duration : 2 h 11 min
Bit rate mode : Variable
Bit rate : 20.2 Mb/s
Maximum bit rate : 33.0 Mb/s
Width : 1 920 pixels
Height : 1 080 pixels
Display aspect ratio : 16:9
Frame rate mode : Constant
Frame rate : 23.976 (24000/1001) FPS
Color space : YUV
Chroma subsampling : 4:2:0
Bit depth : 8 bits
Scan type : Progressive
Bits/(Pixel*Frame) : 0.405
Stream size : 18.5 GiB (78%)
Title : Battleship (2012) Remux 1080p 2xUkr/Eng | Sub Ukr/Eng [Hurtom]
Language : Ukrainian
Default : Yes
Forced : Yes

Audio #1
ID : 2
Format : AC-3
Format/Info : Audio Coding 3
Format settings, Endianness : Big
Codec ID : A_AC3
Duration : 2 h 11 min
Bit rate mode : Constant
Bit rate : 384 kb/s
Channel(s) : 2 channels
Channel positions : Front: L R
Sampling rate : 48.0 kHz
Frame rate : 31.250 FPS (1536 SPF)
Bit depth : 16 bits
Compression mode : Lossy
Stream size : 360 MiB (1%)
Title : DUB [Le Doyen] 2.0
Language : Ukrainian
Service kind : Complete Main
Default : Yes
Forced : Yes

Audio #2
ID : 3
Format : AC-3
Format/Info : Audio Coding 3
Format settings, Endianness : Big
Codec ID : A_AC3
Duration : 2 h 11 min
Bit rate mode : Constant
Bit rate : 448 kb/s
Channel(s) : 6 channels
Channel positions : Front: L C R, Side: L R, LFE
Sampling rate : 48.0 kHz
Frame rate : 31.250 FPS (1536 SPF)
Bit depth : 16 bits
Compression mode : Lossy
Stream size : 421 MiB (2%)
Title : DUB [Le Doyen] 5.1 | by Zeus62
Language : Ukrainian
Service kind : Complete Main
Default : No
Forced : No

Audio #3
ID : 4
Format : AC-3
Format/Info : Audio Coding 3
Format settings, Endianness : Big
Codec ID : A_AC3
Duration : 2 h 11 min
Bit rate mode : Constant
Bit rate : 192 kb/s
Channel(s) : 2 channels
Channel positions : Front: L R
Sampling rate : 48.0 kHz
Frame rate : 31.250 FPS (1536 SPF)
Bit depth : 16 bits
Compression mode : Lossy
Stream size : 180 MiB (1%)
Title : MVO [УКРАЇНА] 2.0
Language : Ukrainian
Service kind : Complete Main
Default : No
Forced : No

Audio #4
ID : 5
Format :
Format/Info : Digital Theater Systems
Format profile : MA / Core
Mode : 16
Format settings, Endianness : Big
Codec ID : A_DTS
Duration : 2 h 11 min
Bit rate mode : Variable / Constant
Bit rate : 4 172 kb/s / 1 509 kb/s
Channel(s) : 6 channels
Channel positions : Front: L C R, Side: L R, LFE
Sampling rate : 48.0 kHz
Frame rate : 93.750 FPS (512 SPF)
Bit depth : 24 bits
Compression mode : Lossless / Lossy
Stream size : 3.83 GiB (16%)
Title : Original -HD MA 5.1
Language : English
Default : No
Forced : No

Audio #5
ID : 6
Format : AC-3
Format/Info : Audio Coding 3
Format settings, Endianness : Big
Codec ID : A_AC3
Duration : 2 h 11 min
Bit rate mode : Constant
Bit rate : 640 kb/s
Channel(s) : 6 channels
Channel positions : Front: L C R, Side: L R, LFE
Sampling rate : 48.0 kHz
Frame rate : 31.250 FPS (1536 SPF)
Bit depth : 16 bits
Compression mode : Lossy
Stream size : 601 MiB (2%)
Title : Original 5.1
Language : English
Service kind : Complete Main
Default : No
Forced : No

Text #1
ID : 7
Format : UTF-8
Codec ID : S_TEXT/UTF8
Codec ID/Info : UTF-8 Plain Text
Duration : 2 h 8 min
Bit rate : 1 b/s
Count of elements : 33
Stream size : 1.71 KiB (0%)
Title : Ukr (Forced)
Language : Ukrainian
Default : Yes
Forced : Yes

Text #2
ID : 8
Format : UTF-8
Codec ID : S_TEXT/UTF8
Codec ID/Info : UTF-8 Plain Text
Duration : 2 h 4 min
Bit rate : 81 b/s
Count of elements : 1109
Stream size : 74.0 KiB (0%)
Title : Ukr (Full)
Language : Ukrainian
Default : No
Forced : No

Text #3
ID : 9
Format : UTF-8
Codec ID : S_TEXT/UTF8
Codec ID/Info : UTF-8 Plain Text
Duration : 2 h 9 min
Bit rate : 45 b/s
Count of elements : 1386
Stream size : 43.2 KiB (0%)
Title : Eng Full) BD CEE
Language : English
Default : No
Forced : No

Text #4
ID : 10
Format : UTF-8
Codec ID : S_TEXT/UTF8
Codec ID/Info : UTF-8 Plain Text
Duration : 2 h 9 min
Bit rate : 50 b/s
Count of elements : 1489
Stream size : 47.7 KiB (0%)
Title : Eng (SDH)
Language : English
Default : No
Forced : No

Text #5
ID : 11
Format : UTF-8
Codec ID : S_TEXT/UTF8
Codec ID/Info : UTF-8 Plain Text
Duration : 2 h 9 min
Bit rate : 58 b/s
Count of elements : 1489
Stream size : 55.7 KiB (0%)
Title : Eng (SDH, Color)
Language : English
Default : No
Forced : No

Menu
00:00:00.000 : en:00:00:00.000
00:09:24.105 : en:00:09:24.105
00:15:04.320 : en:00:15:04.320
00:23:08.679 : en:00:23:08.679
00:29:44.032 : en:00:29:44.032
00:36:26.810 : en:00:36:26.810
00:42:01.269 : en:00:42:01.269
00:49:09.655 : en:00:49:09.655
00:56:08.323 : en:00:56:08.323
01:00:02.224 : en:01:00:02.224
01:09:50.520 : en:01:09:50.520
01:15:26.731 : en:01:15:26.731
01:20:56.935 : en:01:20:56.935
01:29:47.424 : en:01:29:47.424
01:37:14.412 : en:01:37:14.412
01:43:32.248 : en:01:43:32.248
01:49:38.572 : en:01:49:38.572
01:56:20.682 : en:01:56:20.682
02:00:41.359 : en:02:00:41.359
02:09:33.975 : en:02:09:33.975
Скріншоти
Джерело: &
Подяка п. Skiff за Аудіо №1 в 2.0, п. Zeus62 за №2 в 5.1, пану POMEO за запис Аудіо №3 та пану Arsenfpu за синхронізацію.
Також дякую п. karvai0 за постер, Gelios та xfsthe- за субтитри.
Особиста оцінка: 10 - без зайвих вагань рекомендую всім!


Золотий реліз (завантажене не впливає на рейтинг)
 Трекер:    Зареєстрований   

Завантажити / скачати фільм українською



відео для новачків



 Зареєстрований:   2019-06-27 23:15
 Розмір:   23.83 GB 
 Оцінка фільму:   9.7/10 (Голосів: 9)
   
Інші релізи
Ваш часовий пояс: GMT + 2 Години

Нова тема   Відповісти