Ейфорія (Сезон 1) / Euphoria (Season 1) (2019) 720p Eng | sub Ukr

Нові коментарі

Нова тема   Відповісти
Автор Повідомлення
Chupacabr007 
Свій


З нами з: 07.07.15
Востаннє: 03.12.20
Повідомлень: 94

2019-06-27 11:58  
Ейфорія (Сезон 1) / Euphoria (Season 1) (2019) 720p Eng | sub Ukr

Ейфорія (Сезон 1) / Euphoria (Season 1) (2019) 720p Eng | sub Ukr


Жанр: драма
Країна: США



Кінокомпанія: A24, HBO, Little Lamb, The Reasonable Bunch
Режисер: Сем Левінсон, Августін Фріззелл, Дженніфер Моррісон
Актори: Зендея, Мод Апатоу, Ангус Клауд, Ерік Дейн, Алекса Демі, Джейкоб Елорді, Барбі Феррейра, Сторм Рейд, Гантер Шефер

Сюжет:
У центрі історії - складне і хаотичне життя сучасних школярів зі старших класів. Будні підлітків нудними не назвеш: психологічні травми, жорстокість, наркотики, секс, дружба, соцмережі і кохання.


Тривалість: ~ 00:55:00
Перелік серій
01.Pilot
02.Stuntin' Like My Daddy
03.Made You Look
04.Shook One: Pt II
05.'03 Bonnie and Clyde
06.The Next Episode
07.The Trials and Tribulations of Trying to Pee While Depressed
08.And Salt the Earth Behind You
Якість: 720p
Відео:
кодек:
розмір кадру: 1280 х 720
бітрейт: ~2637 кб/с

Аудіо:
мова: англійська
переклад: оригінал
кодек: E- 5.1
бітрейт: 640 кб/с

Субтитри:
мова: українська
тип: програмні (м'які)
формат: *.srt
переклад: [SubAutumn]
Скріншоти





Info
General
Complete name : D:\SubAutumn\Euphoria (Season 1)\Euphoria.S01E01.Pilot.
Format :
Format version : Version 4 / Version 2
File size : 1 016 MiB
Duration : 53mn 53s
Overall bit rate : 2 637 Kbps
Movie name : Euphoria.S01E01.Pilot
Encoded date : UTC 2019-06-27 09:11:11
Writing application : v6.5.0 ('Isn't she lovely') built on Oct 20 2013 12:50:05
Writing library : libebml v1.3.0 + v1.4.1

Video
ID : 1
Format : AVC
Format/Info : Advanced Video Codec
Format profile : [email protected]
Format settings, CABAC : Yes
Format settings, ReFrames : 4 frames
Codec ID : V_MPEG4/ISO/AVC
Duration : 53mn 53s
Bit rate : 1 944 Kbps
Width : 1 280 pixels
Height : 720 pixels
Display aspect ratio : 16:9
Frame rate mode : Constant
Frame rate : 23.976 fps
Color space : YUV
Chroma subsampling : 4:2:0
Bit depth : 8 bits
Scan type : Progressive
Bits/(Pixel*Frame) : 0.088
Stream size : 749 MiB (74%)
Writing library : core 146 r2538 121396c
Encoding settings : cabac=1 / ref=1 / deblock=1:0:0 / analyse=0x3:0x113 / me=hex / subme=2 / psy=1 / psy_rd=1.00:0.00 / mixed_ref=0 / me_range=16 / chroma_me=1 / trellis=0 / 8x8dct=1 / cqm=0 / deadzone=21,11 / fast_pskip=1 / chroma_qp_offset=0 / threads=12 / lookahead_threads=4 / sliced_threads=0 / nr=0 / decimate=1 / interlaced=0 / bluray_compat=0 / constrained_intra=0 / bframes=3 / b_pyramid=2 / b_adapt=1 / b_bias=0 / direct=1 / weightb=1 / open_gop=0 / weightp=1 / keyint=250 / keyint_min=23 / scenecut=40 / intra_refresh=0 / rc_lookahead=10 / rc=crf / mbtree=1 / crf=18.0 / qcomp=0.60 / qpmin=0 / qpmax=69 / qpstep=4 / ip_ratio=1.40 / aq=1:1.00
Language : English
Default : Yes
Forced : No

Audio
ID : 2
Format : E-AC-3
Format/Info : Audio Coding 3
Format settings, Endianness : Big
Codec ID : A_EAC3
Duration : 53mn 53s
Bit rate mode : Constant
Bit rate : 640 Kbps
Channel(s) : 6 channels
Channel positions : Front: L C R, Side: L R, LFE
Sampling rate : 48.0 KHz
Compression mode : Lossy
Delay relative to video : 6ms
Stream size : 247 MiB (24%)
Title : Original
Language : English
Default : No
Forced : No

Text
ID : 3
Format : UTF-8
Codec ID : S_TEXT/UTF8
Codec ID/Info : UTF-8 Plain Text
Title : Euphoria.S01E01.Pilot
Language : Ukrainian
Default : Yes
Forced : No
Джерело:
Особиста оцінка: 9 - давно не бачив настільки якісне кіно


Золотий реліз (завантажене не впливає на рейтинг)
 Трекер:    Зареєстрований   

Завантажити / скачати серіал українською



відео для новачків



 Зареєстрований:   2019-08-11 18:19
 Розмір:   12.24 GB 
 Оцінка серіалу:   9.5/10 (Голосів: 18)
   
Chupacabr007 
Свій


З нами з: 07.07.15
Востаннє: 03.12.20
Повідомлень: 94

2019-06-30 10:39  
Додано 2 серію
Chupacabr007 
Свій


З нами з: 07.07.15
Востаннє: 03.12.20
Повідомлень: 94

2019-07-08 11:50  
Додано 3 серію
Влад Гук 
Частий відвідувач


З нами з: 06.07.13
Востаннє: 18.07.20
Повідомлень: 44

2019-07-13 09:47  
Дякую за саби, не думав що серіал так добре зайде)
Chupacabr007 
Свій


З нами з: 07.07.15
Востаннє: 03.12.20
Повідомлень: 94

2019-07-15 12:36  
Додано 4 серію
Chupacabr007 
Свій


З нами з: 07.07.15
Востаннє: 03.12.20
Повідомлень: 94

2019-07-22 11:53  
Додано 5 серію
Chupacabr007 
Свій


З нами з: 07.07.15
Востаннє: 03.12.20
Повідомлень: 94

2019-07-29 12:25  
Додано 6 серію
Chupacabr007 
Свій


З нами з: 07.07.15
Востаннє: 03.12.20
Повідомлень: 94

2019-08-04 18:41  
Додано 7 серію
Chupacabr007 
Свій


З нами з: 07.07.15
Востаннє: 03.12.20
Повідомлень: 94

2019-08-11 18:26  
Додано 8 серію
Повний сезон!

redtrip 
Новенький


З нами з: 20.07.15
Востаннє: 02.12.20
Повідомлень: 2

2019-08-15 09:47  
А можуть бути ще англійськи субтитри? Чи це складно?
igor911 
Модератор відео


З нами з: 18.01.08
Востаннє: 04.12.20
Повідомлень: 15087

2019-08-15 10:51  
redtrip написано:
А можуть бути ще англійськи субтитри? Чи це складно?

ні, це не складно.

redtrip 
Новенький


З нами з: 20.07.15
Востаннє: 02.12.20
Повідомлень: 2

2019-08-23 20:38  
igor911
Дякую!

Ваш часовий пояс: GMT + 2 Години

Нова тема   Відповісти