Чорне Дзеркало / Black Mirror (Seasons 2) (2013) Remux 1080i Ukr/Eng | Sub Eng

Нові коментарі

Нова тема   Відповісти
Автор Повідомлення
Anonymous 







2019-06-26 19:59  
Чорне Дзеркало / Black Mirror (Seasons 2) (2013) Remux 1080i Ukr/Eng | Sub Eng

Чорне Дзеркало / Black Mirror (Seasons 2) (2013) Remux 1080i Ukr/Eng | Sub Eng


Жанр: фантастика, трилер, драма
Країна: Велика Британія
Кінокомпанія: Zeppotron / Channel 4
Режисер: Отто Батурст, Еврос Лін, Браян Велш
Актори: Рорі Кіннер, Ліндсей Дункан, Бріоні Нейлан-Френсіс, Шон Ешборн, Том Ґудман-Гілл, Дональд Самптер, Анна Вілсон-Джонс, Даніель Kayluuya, Джессіка Браун Фіндлі, Руперт Еверетт, Джулія Девіс, Ешлі Томас, Тобі Кеббелл, Джоді Віттакер і Том Каллен та інші

Сюжет:
Молода пара, Марта і Еш, переїжджає жити за місто. Еш – активний користувач соціальних мереж: він постійно чекіниться, викладає фотографії і оновлює пости. Наступного дня після переїзду Еш гине. Марта перебуває у відчаї, і на похоронах подруга розповідає їй про новий онлайн сервіс, що дозволяє людям залишатися в контакті з померлими. Сервіс використовує онлайн-комунікації та профілі в соціальних медіа, згуртовує інформацію і створює віртуальний аналог користувача. Сходячи з глузду від туги, Марта вирішує зареєструватися в програмі і починає спілкуватися з Ешем по e-mail, потім по телефону, завантажуючи в базу даних сервера його відео-і аудіофайли. Тепер вона розмовляє з Ешем без зупину і сама не помічає, як перестає жити реальним життям. Раптово Марта дізнається про нову функцію цієї програми...

Тривалість: 1 серія: ~ 50:00 (цілком серій: 4)
Перелік серій

00. White Christmas (special episode) / Біле Різдво (спецепізод)
01. Be Right Back / Скоро повернусь
02. White Bear / Білий ведмідь
03. The Waldo Moment / Момент для Уолдо
Якість: Remux (1, 2 та 3 епізоди), (0 епізод)
Відео:
кодек:
розмір кадру: 1920 x 1080
бітрейт: 15 959 кб/с

Аудіо # 1: (1, 2 та 3 епізоди)
мова: українська
переклад: багатоголосий закадровий
кодек: AC-3 2.0
бітрейт: 192 кб/с

Аудіо # 2: (1, 2 та 3 епізоди)
мова: англійська
переклад: оригінал
кодек: -HD MA 5.1
бітрейт: 2 048 кб/с

Аудіо # 1: (0 епізод)
мова: українська
переклад: багатоголосий закадровий | студія "НеЗупиняйПродакшн"
кодек: AC-3 2.0
бітрейт: 384 кб/с

Аудіо # 2: (0 епізод)
мова: українська
переклад: багатоголосий закадровий | Melodic Voice Studio
кодек: 2.0
бітрейт: 506 кб/с

Аудіо # 3: (0 епізод)
мова: англійська
переклад: оригінал
кодек: E- 2.0
бітрейт: 224 кб/с

Субтитри #1: (SDH) (1, 2 та 3 епізоди)
мова: англійська,
тип: програмні (м'які)
формат: *.srt

Субтитри #1: (Forced, Full (by Tesu)) (0 епізод)
мова: українська
тип: програмні (м'які)
формат: *.srt

Субтитри #2: (SDH) (0 епізод)
мова: англійська,
тип: програмні (м'які)
формат: *.srt


Info
Код:
General
Unique ID                                : 36222106930758557617653198748627371516 (0x1B401FC0FFA2220507F68818EBCE05FC)
Complete name                            : Black Mirror (2013) - S02E01 - Be Right Back - Remux 1080i [UKR_ENG] [Hurtom].
Format                                   :
Format version                           : Version 4 / Version 2
File size                                : 6.17 GiB
Duration                                 : 48 min 30 s
Overall bit rate mode                    : Variable
Overall bit rate                         : 18.2 Mb/s
Movie name                               : Black Mirror (2013) - S02E01 - Be Right Back
Encoded date                             : UTC 2019-05-05 22:19:15
Writing application                      : v20.0.0 ('I Am The Sun') 64-bit
Writing library                          : libebml v1.3.5 + v1.4.8
Cover                                    : Yes
Attachments                              : cover.jpg

Video
ID                                       : 1
Format                                   : MPEG Video
Format version                           : Version 2
Format profile                           : [email protected]
Format settings                          : CustomMatrix / BVOP
Format settings, BVOP                    : Yes
Format settings, Matrix                  : Custom
Format settings, GOP                     : M=3, N=12
Format settings, picture structure       : Frame
Codec ID                                 : V_MPEG2
Codec ID/Info                            : MPEG 1 or 2 Video
Duration                                 : 48 min 30 s
Bit rate mode                            : Variable
Bit rate                                 : 16.0 Mb/s
Maximum bit rate                         : 35.0 Mb/s
Width                                    : 1 920 pixels
Height                                   : 1 080 pixels
Display aspect ratio                     : 16:9
Frame rate mode                          : Constant
Frame rate                               : 25.000 FPS
Color space                              : YUV
Chroma subsampling                       : 4:2:0
Bit depth                                : 8 bits
Scan type                                : Interlaced
Scan order                               : Top Field First
Compression mode                         : Lossy
Bits/(Pixel*Frame)                       : 0.308
Time code of first frame                 : 00:00:00:00
Time code source                         : Group of pictures header
GOP, Open/Closed                         : Open
GOP, Open/Closed of first frame          : Closed
Stream size                              : 5.41 GiB (88%)
Title                                    : Black Mirror (2013) - S02E01 - Be Right Back
Language                                 : English
Default                                  : Yes
Forced                                   : No

Audio #1
ID                                       : 2
Format                                   : AC-3
Format/Info                              : Audio Coding 3
Codec ID                                 : A_AC3
Duration                                 : 48 min 29 s
Bit rate mode                            : Constant
Bit rate                                 : 192 kb/s
Channel(s)                               : 2 channels
Channel positions                        : Front: L R
Sampling rate                            : 48.0 kHz
Frame rate                               : 31.250 FPS (1536 SPF)
Bit depth                                : 16 bits
Compression mode                         : Lossy
Delay relative to video                  : 300 ms
Stream size                              : 66.6 MiB (1%)
Title                                    : БЗ - Kanal Ukraina - / 2.0 / 48 kHz / 192 kbps
Language                                 : Ukrainian
Service kind                             : Complete Main
Default                                  : Yes
Forced                                   : Yes

Audio #2
ID                                       : 3
Format                                   :
Format/Info                              : Digital Theater Systems
Format profile                           : MA / Core
Codec ID                                 : A_DTS
Duration                                 : 48 min 30 s
Bit rate mode                            : Variable / Constant
Bit rate                                 : 2 048 kb/s / 1 509 kb/s
Channel(s)                               : 6 channels
Channel positions                        : Front: L C R, Side: L R, LFE
Sampling rate                            : 48.0 kHz
Frame rate                               : 93.750 FPS (512 SPF)
Bit depth                                : 16 bits
Compression mode                         : Lossless / Lossy
Stream size                              : 711 MiB (11%)
Title                                    : Original - -HD Master Audio / 5.1 / 48 kHz / 2050 kbps / 16-bit
Language                                 : English
Default                                  : No
Forced                                   : No

Text
ID                                       : 4
Format                                   : UTF-8
Codec ID                                 : S_TEXT/UTF8
Codec ID/Info                            : UTF-8 Plain Text
Duration                                 : 46 min 45 s
Bit rate                                 : 48 b/s
Count of elements                        : 595
Stream size                              : 16.5 KiB (0%)
Title                                    : SDH
Language                                 : English
Default                                  : Yes
Forced                                   : No

Menu
00:00:00.000                             : en:Chapter 1
00:08:54.960                             : en:Chapter 2
00:24:29.600                             : en:Chapter 3
00:47:22.960                             : en:Chapter 4
Світлини


Джерело: &
Особиста оцінка: 10 - без зайвих вагань рекомендую всім!


Золотий реліз (завантажене не впливає на рейтинг)
 Трекер:    Зареєстрований   

Завантажити / скачати серіал українською



відео для новачків



 Зареєстрований:   2019-06-26 19:59
 Розмір:   21.02 GB 
 Оцінка серіалу:   10/10 (Голосів: 1)
   
olyx 
Відео Гуртом - підтримка та поширення
Відео Гуртом - підтримка та поширення


З нами з: 25.01.10
Востаннє: 03.12.20
Повідомлень: 273

2019-07-17 13:02  
Роздача ще жива?
Anonymous 







2019-08-05 21:00  
olyx
Так.

Ваш часовий пояс: GMT + 2 Години

Нова тема   Відповісти