Чорне Дзеркало / Black Mirror (Seasons 1) (2011) Remux 1080i Ukr/Eng | Sub Ukr/Eng

Нові коментарі

Нова тема   Відповісти
Автор Повідомлення
Anonymous 







2019-06-26 19:58  
Чорне Дзеркало / Black Mirror (Seasons 1) (2011) Remux 1080i Ukr/Eng | Sub Ukr/Eng

Чорне Дзеркало / Black Mirror (Seasons 1) (2011) Remux 1080i Ukr/Eng | Sub Ukr/Eng


Жанр: фантастика, трилер, драма
Країна: Велика Британія
Кінокомпанія: Zeppotron / Channel 4
Режисер: Отто Батурст, Еврос Лін, Браян Велш
Актори: Рорі Кіннер, Ліндсей Дункан, Бріоні Нейлан-Френсіс, Шон Ешборн, Том Ґудман-Гілл, Дональд Самптер, Анна Вілсон-Джонс, Даніель Kayluuya, Джессіка Браун Фіндлі, Руперт Еверетт, Джулія Девіс, Ешлі Томас, Тобі Кеббелл, Джоді Віттакер і Том Каллен та інші

Сюжет:
За останні десять років технології всебічно змінили наше життя, перш ніж ми встигли схаменутися і засумніватися в них. У кожному будинку, на кожному столі, на кожній долоні - плазмовий телевізор, монітор комп'ютера, дисплей смартфона - чорне дзеркало нашого існування в двадцять першому столітті. Наш зв'язок з реальністю змінюється. Ми поклали на вівтар «Google» і «Apple» і поклоняємося їм. «Facebook» алгоритми знають про нас більше, ніж наші власні батьки. У нас є доступ до всієї інформації в світі, але в голові вистачає місця лише для того, щоб сприйняти 140 символів з ​​повідомлення в твіттері. У «Чорному дзеркалі» відображається загальне занепокоєння за наш сучасний світ. Цей захоплюючий міні-серіал складається з трьох незв'язаних між собою епізодів, які наповнені гострою сатирою і зав'язані на параноїдальній залежності людей від сучасних технологій.

Тривалість: 1 серія: ~ 50:00 (цілком серій: 3)
Перелік серій
01. The National Anthem / Національний гімн
02. Fifteen Million Merits / П'ятнадцять мільйонів нагород
03. The Entire History of You / Твоя історія
Якість: Remux (1 та 3 епізод), (2 епізод)
Відео:
кодек:
розмір кадру: 1920 x 1080
бітрейт: 15 971 кб/с

Аудіо # 1:
мова: українська
переклад: багатоголосий закадровий
кодек: AC-3 2.0
бітрейт: 192 кб/с

Аудіо # 2:
мова: англійська
переклад: оригінал
кодек: -HD MA 5.1
бітрейт: 2 164 кб/с

Субтитри # 1: (Full by Forestelf, Nobody69, Go2, Netashka)
мова: українська
тип: програмні (м'які)
формат: *.srt

Субтитри # 2 (SDH)
мова: англійська,
тип: програмні (м'які)
формат: *.srt


Info
Код:
General
Unique ID                                : 20451883023889271834450987304440177778 (0xF62E3AF4A8B98871D91FDD40F862472)
Complete name                            : Black Mirror (2011) - S01E01 - The National Anthem - Remux 1080i [UKR_ENG] [Hurtom].
Format                                   :
Format version                           : Version 4 / Version 2
File size                                : 5.65 GiB
Duration                                 : 44 min 6 s
Overall bit rate mode                    : Variable
Overall bit rate                         : 18.3 Mb/s
Movie name                               : Black Mirror (2011) - S01E01 - The National Anthem
Encoded date                             : UTC 2019-06-26 17:09:27
Writing application                      : v20.0.0 ('I Am The Sun') 64-bit
Writing library                          : libebml v1.3.5 + v1.4.8
Cover                                    : Yes
Attachments                              : cover.jpg

Video
ID                                       : 1
Format                                   : MPEG Video
Format version                           : Version 2
Format profile                           : [email protected]
Format settings                          : CustomMatrix / BVOP
Format settings, BVOP                    : Yes
Format settings, Matrix                  : Custom
Format settings, GOP                     : M=3, N=12
Format settings, picture structure       : Frame
Codec ID                                 : V_MPEG2
Codec ID/Info                            : MPEG 1 or 2 Video
Duration                                 : 44 min 6 s
Bit rate mode                            : Variable
Bit rate                                 : 16.0 Mb/s
Maximum bit rate                         : 35.0 Mb/s
Width                                    : 1 920 pixels
Height                                   : 1 080 pixels
Display aspect ratio                     : 16:9
Frame rate mode                          : Constant
Frame rate                               : 25.000 FPS
Color space                              : YUV
Chroma subsampling                       : 4:2:0
Bit depth                                : 8 bits
Scan type                                : Interlaced
Scan order                               : Top Field First
Compression mode                         : Lossy
Bits/(Pixel*Frame)                       : 0.308
Time code of first frame                 : 00:00:00:00
Time code source                         : Group of pictures header
GOP, Open/Closed                         : Open
GOP, Open/Closed of first frame          : Closed
Stream size                              : 4.92 GiB (87%)
Title                                    : Black Mirror (2011) - S01E01 - The National Anthem
Language                                 : English
Default                                  : Yes
Forced                                   : No

Audio #1
ID                                       : 2
Format                                   : AC-3
Format/Info                              : Audio Coding 3
Codec ID                                 : A_AC3
Duration                                 : 44 min 6 s
Bit rate mode                            : Constant
Bit rate                                 : 192 kb/s
Channel(s)                               : 2 channels
Channel positions                        : Front: L R
Sampling rate                            : 48.0 kHz
Frame rate                               : 31.250 FPS (1536 SPF)
Bit depth                                : 16 bits
Compression mode                         : Lossy
Stream size                              : 60.6 MiB (1%)
Title                                    : БЗ - Kanal Ukraina - / 2.0 / 48 kHz / 192 kbps
Language                                 : Ukrainian
Service kind                             : Complete Main
Default                                  : Yes
Forced                                   : Yes

Audio #2
ID                                       : 3
Format                                   :
Format/Info                              : Digital Theater Systems
Format profile                           : MA / Core
Codec ID                                 : A_DTS
Duration                                 : 44 min 6 s
Bit rate mode                            : Variable / Constant
Bit rate                                 : 2 164 kb/s / 1 509 kb/s
Channel(s)                               : 6 channels
Channel positions                        : Front: L C R, Side: L R, LFE
Sampling rate                            : 48.0 kHz
Frame rate                               : 93.750 FPS (512 SPF)
Bit depth                                : 16 bits
Compression mode                         : Lossless / Lossy
Stream size                              : 682 MiB (12%)
Title                                    : Original - -HD Master Audio / 5.1 / 48 kHz / 2164 kbps / 16-bit
Language                                 : English
Default                                  : No
Forced                                   : No

Text #1
ID                                       : 4
Format                                   : UTF-8
Codec ID                                 : S_TEXT/UTF8
Codec ID/Info                            : UTF-8 Plain Text
Duration                                 : 42 min 38 s
Bit rate                                 : 120 b/s
Count of elements                        : 617
Stream size                              : 37.5 KiB (0%)
Title                                    : Full (by Forestelf, Nobody69, Go2, Netashka)
Language                                 : Ukrainian
Default                                  : Yes
Forced                                   : No

Text #2
ID                                       : 5
Format                                   : UTF-8
Codec ID                                 : S_TEXT/UTF8
Codec ID/Info                            : UTF-8 Plain Text
Duration                                 : 43 min 2 s
Bit rate                                 : 66 b/s
Count of elements                        : 674
Stream size                              : 21.1 KiB (0%)
Title                                    : SDH
Language                                 : English
Default                                  : No
Forced                                   : No

Menu
00:00:00.000                             : en:Chapter 1
00:01:19.800                             : en:Chapter 2
00:11:27.280                             : en:Chapter 3
00:19:18.400                             : en:Chapter 4
00:29:18.720                             : en:Chapter 5
00:42:51.800                             : en:Chapter 6
Світлини


Джерело: &
Особиста оцінка: 10 - без зайвих вагань рекомендую всім!




Золотий реліз (завантажене не впливає на рейтинг)
 Трекер:    Зареєстрований   

Завантажити / скачати серіал українською



відео для новачків



 Зареєстрований:   2019-06-26 19:58
 Розмір:   16.31 GB 
 Оцінка серіалу:   10/10 (Голосів: 2)
   
Ваш часовий пояс: GMT + 2 Години

Нова тема   Відповісти