Доктор Хто (Сезон 7) / Doctor Who (Season 7) (2012-2013) 720p 2xUkr/Eng | Sub Ukr/Eng

Нові коментарі

Нова тема   Відповісти
Автор Повідомлення
Anonymous 







2019-06-26 19:45  
Доктор Хто (Сезон 7) / Doctor Who (Season 7) (2012-2013) 720p 2xUkr/Eng |Sub Ukr/Eng



Жанр: пригодницький, драма, сімейний
Країна: Велика Британія



Кінокомпанія: BBC
Режисер: Грем Харпер, Ерос Лін, Дуглас Маккінон.
Актори: Мет Сміт, Карен Гілан, Артур Дарвіл, Іен МакНіс, Алекс Кінгстон, Саймон Фішер-Бекер.

Сюжет:
За сюжетом, Доктор Хто - легендарний міжгалактичний герой, знаменитий шукач пригод і мандрівник крізь простір і час. У тих далеких світах, звідки він прибув, перед ним схиляються і називають Володарем часу. Його місія - врятувати людську расу від інопланетян, які готуються захопити Землю та знищити людей. Прибульці вже серед нас, вони розсіялися серед людей, але їх підступному задумом ще можна перешкодити.


Тривалість: 1 серія: 50хв (цілком серій: 17 з 17)
Перелік серій
00. The Doctor, the Widow and the Wardrobe / Доктор, вдова і шафа.
01. Asylum of the Daleks / Ізолятор далеків
02. Dinosaurs on a Spaceship / Динозаври на космічному кораблі
03. A Town Called Mercy / Місто під назвою "Милосердя"
04. The Power of Three / Сила трьох
05. The Angels Take Manhattan / Янголи захопили Мангеттен
06. Snowmen / Сніговики
07. The Bells of St John / Дзвони святого Джона
08. The Rings of Akhaten / Кільця Акатена
09. Cold War / Холодна війна
10. Hide / Хованки
11. Journey to the Centre of the TARDIS / Подорож до центру ТАРДІС
12. The Crimson Horror / Багряний жах
13. Nightmare in Silver / Срібний жах
14. The Name of the Doctor / Ім'я Доктора
15. The Day of the Doctor / День Доктора
16. The Time of the Doctor / Час Доктора
Якість:
Відео:
кодек:
розмір кадру: 1280 х 720
бітрейт: 6494 кб/с

Аудіо # 1:
мова: українська
переклад: багатоголосий закадровий
кодек: 2.0
бітрейт: 192 кб/с
інформація про озвучення
Ролі озвучили: Олександр Солодкий, Михайло Войчук, Єлизавета Зіновенко та Юлія Малахова.
Аудіо # 2: серії 1-14
мова: українська
переклад: багатоголосий закадровий | UkrDub
кодек: 5.1
бітрейт: 384 кб/с
інформація про озвучення
Переклад: Eternidad
Редакція: PhilosophUA
Ролі озвучили: PhilosophUA, Maksym Lobenko, [email protected], TRO[9]N, Mr.Bero, --Rom--, Vergil, Deity, Русалка, Maslinka
Робота зі звуком: PhilosophUA (1-12), Роман Мирон (13-14)
Аудіо # 3: серії 6 та 15
мова: українська
переклад: багатоголосий закадровий | UAVoice
кодек: 2.0
бітрейт: 192 кб/с

Аудіо # 4: серія 15
мова: українська
переклад: багатоголосий закадровий | BaibaKoTV
кодек: 5.1
бітрейт: 640 кб/с

Аудіо # 5:
мова: англійська
переклад: оригінал
кодек: 5.1
бітрейт: 448 кб/с

Субтитри:
мова: англійська
тип: програмні (м'які)
формат: .srt

Субтитри: серії 1-14
мова: українська
тип: програмні (м'які)
формат: .srt
Переклад: Eternidad

Субтитри: cерія 6
мова: українська
тип: програмні (м'які)
формат: .srt
Переклад: Maryena

Субтитри: cерія 16
мова: українська
тип: програмні (м'які)
формат: .srt
Переклад: Juli_Bettany
Info
Format :
Format version : Version 4
File size : 2.92 GiB
Duration : 58 min 28 s
Overall bit rate : 7 148 kb/s
Encoded date : UTC 2019-06-26 14:30:15
Writing application : v27.0.0 ('Metropolis') 64-bit
Writing library : libebml v1.3.6 + v1.4.9
Cover : Yes
Attachments : cover.png

Video
ID : 1
Format : AVC
Format/Info : Advanced Video Codec
Format profile : [email protected]
Format settings : CABAC / 5 Ref Frames
Format settings, CABAC : Yes
Format settings, ReFrames : 5 frames
Codec ID : V_MPEG4/ISO/AVC
Duration : 58 min 28 s
Bit rate : 6 494 kb/s
Width : 1 280 pixels
Height : 720 pixels
Display aspect ratio : 16:9
Frame rate mode : Constant
Frame rate : 29.970 (30000/1001) FPS
Color space : YUV
Chroma subsampling : 4:2:0
Bit depth : 8 bits
Scan type : Progressive
Bits/(Pixel*Frame) : 0.235
Stream size : 2.65 GiB (91%)
Writing library : core 120 r2145 748fe16
Encoding settings : cabac=1 / ref=5 / deblock=1:-1:-1 / analyse=0x3:0x113 / me=umh / subme=7 / psy=1 / psy_rd=1.00:0.00 / mixed_ref=1 / me_range=16 / chroma_me=1 / trellis=1 / 8x8dct=1 / cqm=0 / deadzone=21,11 / fast_pskip=1 / chroma_qp_offset=-2 / threads=12 / sliced_threads=0 / nr=0 / decimate=1 / interlaced=0 / bluray_compat=0 / constrained_intra=0 / bframes=3 / b_pyramid=2 / b_adapt=2 / b_bias=0 / direct=3 / weightb=1 / open_gop=0 / weightp=2 / keyint=250 / keyint_min=25 / scenecut=40 / intra_refresh=0 / rc_lookahead=40 / rc=2pass / mbtree=1 / bitrate=6494 / ratetol=1.0 / qcomp=0.60 / qpmin=0 / qpmax=69 / qpstep=4 / cplxblur=20.0 / qblur=0.5 / vbv_maxrate=50000 / vbv_bufsize=50000 / nal_hrd=none / ip_ratio=1.40 / aq=1:1.00
Language : English
Default : Yes
Forced : No

Audio #1
ID : 2
Format : AC-3
Format/Info : Audio Coding 3
Commercial name : Dolby Digital
Codec ID : A_AC3
Duration : 58 min 28 s
Bit rate mode : Constant
Bit rate : 192 kb/s
Channel(s) : 2 channels
Channel layout : L R
Sampling rate : 48.0 kHz
Frame rate : 31.250 FPS (1536 SPF)
Bit depth : 16 bits
Compression mode : Lossy
Stream size : 80.3 MiB (3%)
Title : MVO - K1
Language : Ukrainian
Service kind : Complete Main
Default : Yes
Forced : No

Audio #2
ID : 3
Format : AC-3
Format/Info : Audio Coding 3
Commercial name : Dolby Digital
Codec ID : A_AC3
Duration : 58 min 28 s
Bit rate mode : Constant
Bit rate : 448 kb/s
Channel(s) : 6 channels
Channel layout : L R C LFE Ls Rs
Sampling rate : 48.0 kHz
Frame rate : 31.250 FPS (1536 SPF)
Bit depth : 16 bits
Compression mode : Lossy
Stream size : 187 MiB (6%)
Language : English
Service kind : Complete Main
Default : No
Forced : No

Text
ID : 4
Format : UTF-8
Codec ID : S_TEXT/UTF8
Codec ID/Info : UTF-8 Plain Text
Duration : 56 min 52 s
Bit rate : 64 b/s
Count of elements : 817
Stream size : 26.9 KiB (0%)
Language : English
Default : No
Forced : No
скріншоти








Подяка: п.drakon87 за наданий сирий звук.
Джерело:
Особиста оцінка: 10 - без зайвих вагань рекомендую всім!





Авторський реліз (завантажувати можна без реєстрації)
 Трекер:    Зареєстрований   

Завантажити / скачати серіал українською



відео для новачків



 Зареєстрований:   2019-09-07 18:39
 Розмір:   46.07 GB 
 Оцінка серіалу:   10/10 (Голосів: 9)
   
Anonymous 







2019-06-27 16:13  
+ 1 серія.
наступні оновлення будуть пачкою по кілька серій.

Seriy100293 
VIP


З нами з: 17.08.11
Востаннє: 13.09.19
Повідомлень: 460

2019-06-27 21:11  
А по К1 показували «День Доктора» та «Час Доктора»?
Neytreenor 
Відео Гуртом - запис з ТБ
Відео Гуртом - запис з ТБ


З нами з: 03.04.11
Востаннє: 15.09.19
Повідомлень: 2062

2019-06-27 21:29  
Seriy100293 написано:
А по К1 показували «День Доктора» та «Час Доктора»?

Ні.

Seriy100293 
VIP


З нами з: 17.08.11
Востаннє: 13.09.19
Повідомлень: 460

2019-06-27 22:11  
Це не є добре...
Anonymous 







2019-06-28 09:00  
Seriy100293 написано:
Це не є добре...

День доктора і так є з двома озвученнями.

Seriy100293 
VIP


З нами з: 17.08.11
Востаннє: 13.09.19
Повідомлень: 460

2019-06-28 21:59  
А «Часу...» нема. Жодної
Anonymous 







2019-07-24 23:53  
+ 6 -16 серії. повний сезон зі спешлами.
Dark Invader 
Модератор відео


З нами з: 06.01.11
Востаннє: 15.09.19
Повідомлень: 2728

2019-07-25 01:50  
Виправте перелік серій.
Anonymous 







2019-07-25 10:51  
Dark Invader написано:
Виправте перелік серій.

додав усі назви.

Anonymous 







2019-09-07 18:41  
Додано озвучення з К1 до серій

Doctor Who S07E15 - The Day of the Doctor
Doctor Who S07E16 - The Time of the Doctor

Оновіть, будь ласка, ваші торенти.

Ваш часовий пояс: GMT + 2 Години

Нова тема   Відповісти