Сам удома (Один вдома) / Home Alone (1990) UHD 4K 2160p SDR H.265 2xUkr/Eng | Sub Ukr/Eng

Нові коментарі

Нова тема   Відповісти
Автор Повідомлення
Anonymous 







2019-06-24 17:12  
Сам удома (Один вдома) / Home Alone (1990) UHD 4K 2160p SDR H.265 2xUkr/Eng | Sub Ukr/Eng

Сам удома (Один вдома) / Home Alone (1990) UHD 4K 2160p SDR H.265 2xUkr/Eng | Sub Ukr/Eng


Жанр: сімейний, різдвяна комедія, пригодницький
Країна: США
Кінокомпанія: Hughes Entertainment, Twentieth Century Fox Film Corporation
Режисер: Кріс Коламбус (Chris Columbus)
Актори: Маколей Калкін (Macaulay Culkin), Джо Пеші (Joe Pesci), Деніел Стерн (Daniel Stern), Джон Герд (John Heard), Кетрін О'Гара (Catherine O'Hara), Джон Кенді (John Candy) та інші
Сюжет:
Батьки забули вдома одного зі своїх численних дітей. Не страшно, коли батьки йдуть в гості до сусідів. Але в цій історії батьки поїхали до Парижу, а Кевін залишився в Америці. Один, хоч і в своєму будинку. Залишившись наодинці, хлопець спочатку зрадів, потім засумував, потім став думати чим би себе зайняти. Довго сумувати не довелось: опустілий будинок привернув увагу пари злодіїв-крадіїв. Маленькому хазяїну довелось вигадувати всілякі хитрощі, щоб захистити помешкання від бандитів.

Тривалість: 01:42:46
Якість: 4K 2160p
Відео:
кодек: H.265 (HEVC)
розмір кадру: 3840 x 2072
бітрейт: 10 006 кб/с
бітова глибина: 10 біт
Увага! Перед завантаженням переконайтесь, що ваш пристрій відтворення (та/або ПЗ) підтримує H.265 (HEVC)

Аудіо # 1:
мова: українська
переклад: двоголосий закадровий
кодек: 5.1
бітрейт: 1511 кб/с

Аудіо # 2:
мова: українська
переклад: двоголосий закадровий
кодек: AC-3 2.0
бітрейт: 192 кб/с

Аудіо # 3:
мова: англійська
переклад: оригінал
кодек: AC-3 5.1
бітрейт: 448 кб/с

Субтитри # 1:
мова: українська (Full),
тип: програмні (м'які)
формат: *.srt

Субтитри # 2:
мова: англійська (Full),
тип: програмні (м'які)
формат: *.srt


Info
Код:
General
Unique ID                                : 35420766903223482042024369526346462647 (0x1AA5CAA3E2EA68B4F0F6945437E1B5B7)
Complete name                            : F:\Video\Home Alone (1990) UHD 4K 2160p H.265 [2xUKR_ENG].
Format                                   :
Format version                           : Version 4 / Version 2
File size                                : 8.73 GiB
Duration                                 : 1 h 42 min
Overall bit rate                         : 12.1 Mb/s
Movie name                               : Home Alone (1990)
Encoded date                             : UTC 2019-06-23 12:29:56
Writing application                      : v20.0.0 ('I Am The Sun') 64-bit
Writing library                          : libebml v1.3.5 + v1.4.8
Cover                                    : Yes
Attachments                              : Cover.jpg

Video
ID                                       : 1
Format                                   : HEVC
Format/Info                              : High Efficiency Video Coding
Format profile                           : Main [email protected]@High
Codec ID                                 : V_MPEGH/ISO/HEVC
Duration                                 : 1 h 42 min
Bit rate                                 : 10.0 Mb/s
Width                                    : 3 840 pixels
Height                                   : 2 072 pixels
Display aspect ratio                     : 1.85:1
Frame rate mode                          : Constant
Frame rate                               : 23.976 (24000/1001) FPS
Color space                              : YUV
Chroma subsampling                       : 4:2:0
Bit depth                                : 10 bits
Bits/(Pixel*Frame)                       : 0.052
Stream size                              : 7.18 GiB (82%)
Language                                 : English
Default                                  : Yes
Forced                                   : No
Color range                              : Limited
Color primaries                          : BT.709
Transfer characteristics                 : BT.709
Matrix coefficients                      : BT.709

Audio #1
ID                                       : 2
Format                                   :
Format/Info                              : Digital Theater Systems
Codec ID                                 : A_DTS
Duration                                 : 1 h 42 min
Bit rate mode                            : Constant
Bit rate                                 : 1 510 kb/s
Channel(s)                               : 6 channels
Channel positions                        : Front: L C R, Side: L R, LFE
Sampling rate                            : 48.0 kHz
Frame rate                               : 93.750 FPS (512 SPF)
Bit depth                                : 24 bits
Compression mode                         : Lossy
Stream size                              : 1.09 GiB (12%)
Title                                    : 5.1 @ 1536 Kbps, Багатоголосий закадровий, Новий канал
Language                                 : Ukrainian
Default                                  : Yes
Forced                                   : Yes

Audio #2
ID                                       : 3
Format                                   : AC-3
Format/Info                              : Audio Coding 3
Codec ID                                 : A_AC3
Duration                                 : 1 h 42 min
Bit rate mode                            : Constant
Bit rate                                 : 192 kb/s
Channel(s)                               : 2 channels
Channel positions                        : Front: L R
Sampling rate                            : 48.0 kHz
Frame rate                               : 31.250 FPS (1536 SPF)
Bit depth                                : 16 bits
Compression mode                         : Lossy
Stream size                              : 141 MiB (2%)
Title                                    : 2.0 @ 192 Kbps, Двохголосий закадровий, 1+1
Language                                 : Ukrainian
Service kind                             : Complete Main
Default                                  : No
Forced                                   : No

Audio #3
ID                                       : 4
Format                                   : AC-3
Format/Info                              : Audio Coding 3
Codec ID                                 : A_AC3
Duration                                 : 1 h 42 min
Bit rate mode                            : Constant
Bit rate                                 : 448 kb/s
Channel(s)                               : 6 channels
Channel positions                        : Front: L C R, Side: L R, LFE
Sampling rate                            : 48.0 kHz
Frame rate                               : 31.250 FPS (1536 SPF)
Bit depth                                : 16 bits
Compression mode                         : Lossy
Stream size                              : 330 MiB (4%)
Title                                    : Original
Language                                 : English
Service kind                             : Complete Main
Default                                  : No
Forced                                   : No

Text #1
ID                                       : 5
Format                                   : UTF-8
Codec ID                                 : S_TEXT/UTF8
Codec ID/Info                            : UTF-8 Plain Text
Duration                                 : 1 h 37 min
Bit rate                                 : 85 b/s
Count of elements                        : 1011
Stream size                              : 60.9 KiB (0%)
Title                                    : Full
Language                                 : Ukrainian
Default                                  : Yes
Forced                                   : No

Text #2
ID                                       : 6
Format                                   : UTF-8
Codec ID                                 : S_TEXT/UTF8
Codec ID/Info                            : UTF-8 Plain Text
Duration                                 : 1 h 37 min
Bit rate                                 : 54 b/s
Count of elements                        : 1019
Stream size                              : 39.3 KiB (0%)
Title                                    : Full
Language                                 : English
Default                                  : No
Forced                                   : No

Menu
00:00:00.000                             : en:Main Titles
00:03:47.060                             : en:"I'm Living Alone!"
00:05:46.679                             : en:Old Man Marley
00:08:49.278                             : en:Spilled Milk
00:11:28.729                             : en:"Everyone in This Family Hates Me."
00:13:43.239                             : en:Head Counts Don't Always Count
00:19:27.457                             : en:"I Made My Family Disappear!"
00:25:08.173                             : en:"What Kind of Mother Am I?"
00:31:16.040                             : en:"I'm the Man of the House!"
00:35:56.654                             : en:I Took a Shower...
00:41:09.550                             : en:Encounter With the Enemy
00:51:22.662                             : en:The Man of the House Goes Shopping
00:57:38.580                             : en:Everything's Full; Help From a Polka King
01:03:27.637                             : en:A Message to Santa/Somewhere in My Memory
01:06:33.656                             : en:The Real Old Man Marley
01:13:43.835                             : en:"This Is My House - I Have to Denfend It!"
01:15:13.216                             : en:"Merry Christmas, Little Fella!"
01:19:27.053                             : en:"Do You Do Ironing?"; Too Hot to Handle
01:22:51.341                             : en:"Come and Get Me!"
01:26:00.071                             : en:The Slide for Life
01:28:45.069                             : en:Outsmarted...And a Welcome Guest
01:33:32.231                             : en:Christmas Morning
01:37:58.288                             : en:Another Special Reunion
01:39:06.064                             : en:End Titles/Somewhere in My Memory (Reprise)
01:42:54.126                             : en:Everything's Full; Help From a Polka King
Світлини





Джерело: &
Особиста оцінка: 10 - без зайвих вагань рекомендую всім!


Срібний реліз (на рейтинг впливає 50% завантаженого)
 Трекер:    Зареєстрований   

Завантажити / скачати фільм українською



відео для новачків



 Зареєстрований:   2019-06-24 17:12
 Розмір:   8.73 GB 
 Оцінка фільму:   9.6/10 (Голосів: 36)
   
bohun 
VIP


З нами з: 21.03.09
Востаннє: 28.09.20
Повідомлень: 357

2019-06-24 19:31  
Нарешті хтось додумався робити SDR 4K, а не ті HDR 4K, які на більшості 4K екранів виглядають напівчорнобілими і блідими.
mov260891 
Новенький


З нами з: 28.05.10
Востаннє: 15.08.20
Повідомлень: 4

2020-01-04 19:14  
дивився цей рiп на LG SK8500 - якість просто огидна, краще дивитись 1080р, технологія upscaling набагато краще справляється з розтягуванням зображення, якість набагато краща.
[email protected] 
Відео Гуртом - підтримка та поширення
Відео Гуртом - підтримка та поширення


З нами з: 16.06.12
Востаннє: 20.09.20
Повідомлень: 1427

2020-02-16 08:54  
mov260891 хоч якість не дуже, але це найпопулярніший реліз в 4K.
Ваш часовий пояс: GMT + 2 Години

Нова тема   Відповісти