Віллард / Willard (2003) 720p Ukr/Eng | Sub Eng

Нові коментарі

Нова тема   Відповісти
Останній раз роздавалося eukr7 (2019-07-10)
Автор Повідомлення
Anonymous 







2019-06-24 17:01  
Віллард / Willard (2003) 720p Ukr/Eng | Sub Eng

Віллард / Willard (2003) 720p Ukr/Eng | Sub Eng


Жанр: драма, трилер, жахи
Країна: Канада, США
Кінокомпанія: Hard Eight Pictures, New Line Cinema
Режисер: Глен Морган
Актори: Кріспін Гловер, Р. Лі Ермі, Лора Єлена Херрінг, Джекі Барроуз, Крістен Клоук, Дейвід Паркер

Сюжет:
Багато років Віллард Стайлс перебував у заручниках у своєї роботи, живучи на самоті без друзів і без майбутнього. Життя здавалося цьому бідоласі безнадійним. Але одного разу він відкриває в собі незвичайний дар - він виявляє дивний містичний зв'язок з пацюками, які гніздяться в підвалі його будинку.

Тривалість: 01:40:29
Якість: 720p
Відео:
кодек:
розмір кадру: 1280 x 544
бітрейт: 6274 кб/с

Аудіо # 1:
мова: українська
переклад: багатоголосий закадровий
кодек: AC-3 2.0
бітрейт: 192 кб/с

Аудіо # 2:
мова: англійська
переклад: оригінал
кодек: 5.1
бітрейт: 1510 кб/с

Субтитри # 1:
мова: англійська (SDH),
тип: програмні (м'які)
формат: *.srt

Субтитри # 2:
мова: англійська (SDH (Amazon)),
тип: програмні (м'які)
формат: *.srt


Info
Код:
General
Unique ID                                : 1776283916456841001241517555598633585 (0x156198F0322DC5BC3D91935977E2A71)
Complete name                            : F:\Video\Willard (2003) 720p [UKR_ENG] [Hurtom].
Format                                   :
Format version                           : Version 4 / Version 2
File size                                : 5.60 GiB
Duration                                 : 1 h 40 min
Overall bit rate                         : 7 976 kb/s
Movie name                               : Віллард / Willard (2003)
Encoded date                             : UTC 2019-06-23 21:58:37
Writing application                      : v20.0.0 ('I Am The Sun') 64-bit
Writing library                          : libebml v1.3.5 + v1.4.8
Cover                                    : Yes
Attachments                              : Cover.jpg

Video
ID                                       : 1
Format                                   : AVC
Format/Info                              : Advanced Video Codec
Format profile                           : [email protected]
Format settings                          : CABAC / 5 Ref Frames
Format settings, CABAC                   : Yes
Format settings, ReFrames                : 5 frames
Codec ID                                 : V_MPEG4/ISO/AVC
Duration                                 : 1 h 40 min
Bit rate                                 : 6 274 kb/s
Width                                    : 1 280 pixels
Height                                   : 544 pixels
Display aspect ratio                     : 2.35:1
Frame rate mode                          : Constant
Frame rate                               : 23.976 (24000/1001) FPS
Color space                              : YUV
Chroma subsampling                       : 4:2:0
Bit depth                                : 8 bits
Scan type                                : Progressive
Bits/(Pixel*Frame)                       : 0.376
Stream size                              : 4.40 GiB (79%)
Title                                    : Віллард / Willard (2003)
Writing library                          : core 157 r2969 d4099dd
Encoding settings                        : cabac=1 / ref=5 / deblock=1:-3:-3 / analyse=0x3:0x113 / me=umh / subme=8 / psy=1 / psy_rd=1.10:0.00 / mixed_ref=1 / me_range=24 / chroma_me=1 / trellis=2 / 8x8dct=1 / cqm=0 / deadzone=21,11 / fast_pskip=1 / chroma_qp_offset=-2 / threads=17 / lookahead_threads=2 / sliced_threads=0 / nr=0 / decimate=1 / interlaced=0 / bluray_compat=0 / constrained_intra=0 / bframes=3 / b_pyramid=2 / b_adapt=2 / b_bias=0 / direct=3 / weightb=1 / open_gop=0 / weightp=2 / keyint=240 / keyint_min=24 / scenecut=40 / intra_refresh=0 / rc_lookahead=50 / rc=2pass / mbtree=1 / bitrate=6274 / ratetol=1.0 / qcomp=0.60 / qpmin=0 / qpmax=69 / qpstep=4 / cplxblur=20.0 / qblur=0.5 / ip_ratio=1.40 / aq=3:0.70
Language                                 : English
Default                                  : Yes
Forced                                   : No

Audio #1
ID                                       : 2
Format                                   : AC-3
Format/Info                              : Audio Coding 3
Codec ID                                 : A_AC3
Duration                                 : 1 h 40 min
Bit rate mode                            : Constant
Bit rate                                 : 192 kb/s
Channel(s)                               : 2 channels
Channel positions                        : Front: L R
Sampling rate                            : 48.0 kHz
Frame rate                               : 31.250 FPS (1536 SPF)
Bit depth                                : 16 bits
Compression mode                         : Lossy
Stream size                              : 138 MiB (2%)
Title                                    : БЗ - ICTV
Language                                 : Ukrainian
Service kind                             : Complete Main
Default                                  : Yes
Forced                                   : Yes

Audio #2
ID                                       : 3
Format                                   :
Format/Info                              : Digital Theater Systems
Codec ID                                 : A_DTS
Duration                                 : 1 h 40 min
Bit rate mode                            : Constant
Bit rate                                 : 1 509 kb/s
Channel(s)                               : 6 channels
Channel positions                        : Front: L C R, Side: L R, LFE
Sampling rate                            : 48.0 kHz
Frame rate                               : 93.750 FPS (512 SPF)
Bit depth                                : 24 bits
Compression mode                         : Lossy
Stream size                              : 1.06 GiB (19%)
Title                                    : Original
Language                                 : English
Default                                  : No
Forced                                   : No

Text #1
ID                                       : 4
Format                                   : UTF-8
Codec ID                                 : S_TEXT/UTF8
Codec ID/Info                            : UTF-8 Plain Text
Duration                                 : 1 h 39 min
Bit rate                                 : 30 b/s
Count of elements                        : 985
Stream size                              : 22.6 KiB (0%)
Title                                    : SDH
Language                                 : English
Default                                  : Yes
Forced                                   : No

Text #2
ID                                       : 5
Format                                   : UTF-8
Codec ID                                 : S_TEXT/UTF8
Codec ID/Info                            : UTF-8 Plain Text
Duration                                 : 1 h 36 min
Bit rate                                 : 31 b/s
Count of elements                        : 1018
Stream size                              : 22.6 KiB (0%)
Title                                    : SDH (Amazon)
Language                                 : English
Default                                  : No
Forced                                   : No

Menu
00:00:00.000                             : en:Chapter 01
00:07:17.937                             : en:Chapter 02
00:16:03.087                             : en:Chapter 03
00:24:04.818                             : en:Chapter 04
00:31:08.366                             : en:Chapter 05
00:37:54.063                             : en:Chapter 06
00:46:06.013                             : en:Chapter 07
00:56:03.360                             : en:Chapter 08
01:04:03.840                             : en:Chapter 09
01:11:59.440                             : en:Chapter 10
01:20:10.139                             : en:Chapter 11
01:29:07.509                             : en:Chapter 12
Світлини





Джерело: &
Особиста оцінка: 0 - не дивився


Срібний реліз (на рейтинг впливає 50% завантаженого)
 Трекер:    Зареєстрований   

Завантажити / скачати фільм українською



відео для новачків



 Зареєстрований:   2019-06-24 17:01
 Розмір:   5.6 GB 
 Оцінка фільму:   6/10 (Голосів: 4)
   
Інші релізи
   Віллард / Willard (2003) [Open Matte] 1080p Ukr/Eng | Sub Eng -Star-Lord-  0 / 0   7.17 GB   2019-06-24 17:04 
   Віллард / Willard (2003) 1080p Ukr/Eng | Sub Eng -Star-Lord-  0 / 0   9.97 GB   2019-06-24 17:03 
   Віллард / Willard (2003) Ukr/Eng drop_plz  3 / 0   1.78 GB   2019-03-23 09:47 
staf777 
Відео Гуртом - підтримка та поширення
Відео Гуртом - підтримка та поширення


З нами з: 16.11.16
Востаннє: 30.09.20
Повідомлень: 4074

2019-06-24 19:01  
+АВЦ
Ваш часовий пояс: GMT + 2 Години

Нова тема   Відповісти