Лиходій / The Villain (1979) HDTV 720p Ukr/Eng | Sub Eng

Нові коментарі

Нова тема   Відповісти
Автор Повідомлення
MakRA 
VIP


З нами з: 11.11.18
Востаннє: 02.04.20
Повідомлень: 937

2019-06-24 00:40  
Лиходій / The Villain (1979) HDTV 720p Ukr/Eng | Sub Eng

Лиходій / The Villain (1979) HDTV 720p Ukr/Eng | Sub Eng

Альтернативні постери:


Жанр: комедія, вестерн
Країна: США



Кінокомпанія: Rastar-Mort Engelburg Production
Режисер: Хел Нідем [Hal Needham]
Актори: Кірк Дуглас [Kirk Douglas], Енн-Маргрет [Ann-Margret], Арнольд Шварценеггер [Arnold Schwarzenegger], Пол Лінде [Paul Lynde], Фостер Брукс [Foster Brooks], Рут Бацци [Ruth Buzzi], Джек Елем [Jack Elam], Стротер Мартін [Strother Martin], Рей Бікел [Ray Bickel], Роберт Тессьєр [Robert Tessier], Мел Тілліс [Mel Tillis], Лаура Лізер Соммерс [Laura Lizer Sommers], Жан Едді [Jan Eddy], Мел Тодд [Mel Todd], Джим Андерсон [Jim Anderson].

Сюжет:
Чарівна дівчина з маленького містечка відправляється в сусіднє місто забрати з банку велику суму грошей. Супроводжувати її повинен благородний ковбой Симпатичний Незнайомець, а лиходій Кактус Джек збирається ці гроші вкрасти — за дорученням нечистого на руку директора банку. Банкір поняття не має, що грабіжник Кактус — патологічний невдаха, якому не вдалася ще жодна «справа» …



Тривалість: 01:24:52
Якість: HDTV 720p
Відео:
кодек:
розмір кадру: 1280 х 720
бітрейт: 11,8 Mб/с

Аудіо # 1:
мова: українська
переклад: багатоголосий закадровий | Студія "ТакТребаПродакшн"
кодек: 2.0
бітрейт: 192 кб/с

Аудіо # 2:
мова: англійська
переклад: оригінал
кодек: 5.1
бітрейт: 448 кб/с

Субтитри: (Full)
мова: англійська
тип: пререндерні
формат: *.pgs
Info
General
Unique ID : 34686107524261005827122337396543431256 (0x1A184D22E20666AAB53B2D36A5E3A258)
Complete name : H:\! Актор Арнольд Шварценеггер\The Villain (1979) HDTV 720p UkrEng Sub Eng [Hurtom].
Format :
Format version : Version 4 / Version 2
File size : 7.39 GiB
Duration : 1 h 24 min
Overall bit rate mode : Variable
Overall bit rate : 12.5 Mb/s
Movie name : Лиходій / The Villain (1979) HDTV 720p Ukr/Eng | Sub Eng [Hurtom]
Encoded date : UTC 2019-06-23 20:34:45
Writing application : v25.0.0 ('Prog Noir') 64-bit
Writing library : libebml v1.3.6 + v1.4.9

Video
ID : 1
Format : AVC
Format/Info : Advanced Video Codec
Format profile : [email protected]
Format settings, CABAC : Yes
Format settings, RefFrames : 2 frames
Codec ID : V_MPEG4/ISO/AVC
Duration : 1 h 24 min
Bit rate mode : Variable
Bit rate : 11.8 Mb/s
Maximum bit rate : 40.0 Mb/s
Width : 1 280 pixels
Height : 720 pixels
Display aspect ratio : 16:9
Frame rate mode : Constant
Frame rate : 50.000 FPS
Color space : YUV
Chroma subsampling : 4:2:0
Bit depth : 8 bits
Scan type : Progressive
Bits/(Pixel*Frame) : 0.256
Stream size : 7.00 GiB (95%)
Title : The Villain (1979) HDTV 720p Ukr/Eng | Sub Eng [Hurtom]
Language : Ukrainian
Default : Yes
Forced : Yes
Color range : Limited
Color primaries : BT.709
Transfer characteristics : BT.709
Matrix coefficients : BT.709

Audio #1
ID : 2
Format : AC-3
Format/Info : Audio Coding 3
Format settings, Endianness : Big
Codec ID : A_AC3
Duration : 1 h 24 min
Bit rate mode : Constant
Bit rate : 192 kb/s
Channel(s) : 2 channels
Channel positions : Front: L R
Sampling rate : 48.0 kHz
Frame rate : 31.250 FPS (1536 SPF)
Bit depth : 16 bits
Compression mode : Lossy
Stream size : 117 MiB (2%)
Title : MVO [ІНТЕР] 2.0 | Студія "ТакТребаПродакшн"
Language : Ukrainian
Service kind : Complete Main
Default : Yes
Forced : Yes

Audio #2
ID : 3
Format : AC-3
Format/Info : Audio Coding 3
Format settings, Endianness : Big
Codec ID : A_AC3
Duration : 1 h 24 min
Bit rate mode : Constant
Bit rate : 448 kb/s
Channel(s) : 6 channels
Channel positions : Front: L C R, Side: L R, LFE
Sampling rate : 48.0 kHz
Frame rate : 31.250 FPS (1536 SPF)
Bit depth : 16 bits
Compression mode : Lossy
Stream size : 272 MiB (4%)
Title : Original 5.1
Language : English
Service kind : Complete Main
Default : No
Forced : No

Text
ID : 4
Format : PGS
Muxing mode : zlib
Codec ID : S_HDMV/PGS
Codec ID/Info : Picture based subtitle format used on BDs/HD-DVDs
Duration : 1 h 16 min
Bit rate : 15.2 kb/s
Count of elements : 1110
Stream size : 8.36 MiB (0%)
Title : Eng (Full)
Language : English
Default : No
Forced : No
Скріншоти
Джерело: &
Дякую п. boltendahl за "сиру" звукову доріжку (VHS - запис орієнтовно 2008 року) і п. NemoInFire за синхронізацію.
Особиста оцінка: 10 - без зайвих вагань рекомендую всім!


Срібний реліз (на рейтинг впливає 50% завантаженого)
 Трекер:    Зареєстрований   

Завантажити / скачати фільм українською



відео для новачків



 Зареєстрований:   2019-06-24 00:40
 Розмір:   7.39 GB 
 Оцінка фільму:   10/10 (Голосів: 7)
   
Інші релізи
   Лиходій / The Villain (1979) NemoInFire  1 / 0   1.28 GB   2014-09-26 17:39 
Ваш часовий пояс: GMT + 2 Години

Нова тема   Відповісти