Острів / The Island (2005) Remux 1080p 2xUkr/Eng | Sub Eng

Нові коментарі

Нова тема   Відповісти
Автор Повідомлення
MakRA 
VIP


З нами з: 11.11.18
Востаннє: 14.08.20
Повідомлень: 1093

2019-06-23 18:52  
Острів / The Island (2005) Remux 1080p 2xUkr/Eng | Sub Eng

Острів / The Island (2005) Remux 1080p 2xUkr/Eng | Sub Eng

Український постер:

Альтернативні обкладинки:


Жанр: екшн, фантастика, трилер
Країна: США



Кінокомпанія: DreamWorks SKG, Warner Bros., Parkes/MacDonald Productions
Режисер: Майкл Бей [Michael Bay]
Актори: Еван МакҐрегор [Ewan McGregor], Скарлетт Йоханссон [Scarlett Johansson] , Джимон Хонсу [Djimon Hounsou], Стів Бушемі [Steve Buscemi], Шон Бін [Sean Bean], Майкл Кларк Данкан [Michael Clarke Duncan], Кім Коутс [Kim Coates].

Сюжет:
Після страшної катастрофи вижити вдалося небагатьом. Уцілілі люди населяють добре захищений комплекс. Про них піклуються, забезпечують всім необхідним, особливим чином стежать за здоров'ям.

Періодично тут проводять лотерею, розігруючи найбажаніший приз: переїзд на єдиний збережений шматочок суші.
Головний герой фільму «Острів» - Лінкольн - один з типових мешканців комплексу. Він втомився від монотонного перебігу буднів і задається питаннями, які оточують, здається, не хвилюють. Лінкольн відправляється на пошуки відповідей, і він дізнається, що переможці лотереї нікуди не їдуть, а вмирають після дивних операцій.

Як раз в цей час його подрузі Джордан дістається заповітний квиток на острів. Лінкольн попереджає її про небезпеку, і пара вирішується на втечу...


Тривалість: 02:16:04
Якість: Remux 1080p
Відео:
кодек:
розмір кадру: 1920 х 1080
бітрейт: 36,2 Мб/с

Аудіо # 1:
мова: українська
переклад: професійний дубльований
кодек: 2.0
бітрейт: 192 кб/с
Про дублювання:
Ролі дублювали:Еван МакҐреґор - Андрій Самінін, Скарлет Йоганссон - Олена Узлюк, Володимир Терещук, Джимон Хонсу - Михайло Жонін, Ольга Радчук, Максим Кондратюк, Анатолій Пашнін, Наталя Романько, Євген Пашин, другорядні ролі - Олег Лепенець, Юлія Перенчук, Павло Скороходько, Георгій Гавриленко.

Українською мовою дубльовано Творчим об'єднанням "Дія" за сприяння AdiozProduction studio на замовлення телекомпанії «Новий канал».
Режисер дубляжу: Георгій Гавриленко
Переклад та адаптація: Андрій Безребрий
Інженер звукозапису: Дмитро Красюк
Звукорежисер: Дмитро Мялковський.
Аудіо # 2:
мова: українська
переклад: багатоголосий закадровий
кодек: 2.0
бітрейт: 192 кб/с
Про озвучення:
Ролі озвучували:Володимир Терещук - Юен МакГрегор, Світлана Шекера - Скарлет Йохансон, Шон Бін, Стів Бушемі - Олег Стальчук, Михайло Жонін.
Озвучила студія "Так Треба Продакшн" для ICTV
Аудіо # 3:
мова: англійська
переклад: оригінал
кодек: -HD MA 5.1
бітрейт: 4358 кб/с

Аудіо # 4:
мова: англійська
переклад: оригінал | Коментарі режисера Майкла Бея
кодек: 2.0
бітрейт: 224 кб/с

Субтитри # 1: (Full)
мова: англійська
тип: пререндерні
формат: *.pgs

Субтитри # 2: (SDH)
мова: англійська
тип: пререндерні
формат: *.pgs
Info
General
Unique ID : 308361885684702537519409211236878033437 (0xE7FC56C46E26F0D090598B40A392A21D)
Complete name : F:\Бойовик, фантастика\The Island (2005) Remux 1080p 2xUkrEng Sub Eng [Hurtom].
Format :
Format version : Version 4 / Version 2
File size : 39.1 GiB
Duration : 2 h 16 min
Overall bit rate mode : Variable
Overall bit rate : 41.1 Mb/s
Movie name : Острів / The Island (2005) Remux 1080p 2xUkr/Eng | Sub Eng [Hurtom]
Encoded date : UTC 2019-06-23 08:45:03
Writing application : v25.0.0 ('Prog Noir') 64-bit
Writing library : libebml v1.3.6 + v1.4.9

Video
ID : 1
Format : AVC
Format/Info : Advanced Video Codec
Format profile : [email protected]
Format settings, CABAC : Yes
Format settings, RefFrames : 4 frames
Codec ID : V_MPEG4/ISO/AVC
Duration : 2 h 16 min
Bit rate mode : Variable
Bit rate : 36.2 Mb/s
Maximum bit rate : 39.0 Mb/s
Width : 1 920 pixels
Height : 1 080 pixels
Display aspect ratio : 16:9
Frame rate mode : Constant
Frame rate : 23.976 (24000/1001) FPS
Color space : YUV
Chroma subsampling : 4:2:0
Bit depth : 8 bits
Scan type : Progressive
Bits/(Pixel*Frame) : 0.727
Stream size : 34.4 GiB (88%)
Title : The Island (2005) Remux 1080p 2xUkr/Eng | Sub Eng [Hurtom]
Language : Ukrainian
Default : Yes
Forced : Yes
Color range : Limited
Color primaries : BT.709
Transfer characteristics : BT.709
Matrix coefficients : BT.709

Audio #1
ID : 2
Format : AC-3
Format/Info : Audio Coding 3
Format settings, Endianness : Big
Codec ID : A_AC3
Duration : 2 h 16 min
Bit rate mode : Constant
Bit rate : 192 kb/s
Channel(s) : 2 channels
Channel positions : Front: L R
Sampling rate : 48.0 kHz
Frame rate : 31.250 FPS (1536 SPF)
Bit depth : 16 bits
Compression mode : Lossy
Stream size : 187 MiB (0%)
Title : DUB [НОВИЙ] 2.0 | Творче об'єднання "Дія" за сприяння AdiozProduction studio
Language : Ukrainian
Service kind : Complete Main
Default : Yes
Forced : Yes

Audio #2
ID : 3
Format : AC-3
Format/Info : Audio Coding 3
Format settings, Endianness : Big
Codec ID : A_AC3
Duration : 2 h 16 min
Bit rate mode : Constant
Bit rate : 192 kb/s
Channel(s) : 2 channels
Channel positions : Front: L R
Sampling rate : 48.0 kHz
Frame rate : 31.250 FPS (1536 SPF)
Bit depth : 16 bits
Compression mode : Lossy
Stream size : 187 MiB (0%)
Title : MVO [ICTV] 2.0 | Студія "ТакТребаПродакшн"
Language : Ukrainian
Service kind : Complete Main
Default : No
Forced : No

Audio #3
ID : 4
Format :
Format/Info : Digital Theater Systems
Format profile : MA / Core
Mode : 16
Format settings, Endianness : Big
Codec ID : A_DTS
Duration : 2 h 16 min
Bit rate mode : Variable / Constant
Bit rate : 4 358 kb/s / 1 509 kb/s
Channel(s) : 6 channels
Channel positions : Front: L C R, Side: L R, LFE
Sampling rate : 48.0 kHz
Frame rate : 93.750 FPS (512 SPF)
Bit depth : 24 bits
Compression mode : Lossless / Lossy
Stream size : 4.14 GiB (11%)
Title : Original -HD MA 5.1
Language : English
Default : No
Forced : No

Audio #4
ID : 5
Format : AC-3
Format/Info : Audio Coding 3
Format settings, Endianness : Big
Codec ID : A_AC3
Duration : 2 h 16 min
Bit rate mode : Constant
Bit rate : 224 kb/s
Channel(s) : 2 channels
Channel positions : Front: L R
Sampling rate : 48.0 kHz
Frame rate : 31.250 FPS (1536 SPF)
Bit depth : 16 bits
Compression mode : Lossy
Stream size : 218 MiB (1%)
Title : Original 2.0 | Commentary by Director Michael Bay
Language : English
Service kind : Complete Main
Default : No
Forced : No

Text #1
ID : 6
Format : PGS
Muxing mode : zlib
Codec ID : S_HDMV/PGS
Codec ID/Info : Picture based subtitle format used on BDs/HD-DVDs
Duration : 2 h 3 min
Bit rate : 33.0 kb/s
Count of elements : 2958
Stream size : 29.2 MiB (0%)
Title : Eng (Full)
Language : English
Default : No
Forced : No

Text #2
ID : 7
Format : PGS
Muxing mode : zlib
Codec ID : S_HDMV/PGS
Codec ID/Info : Picture based subtitle format used on BDs/HD-DVDs
Duration : 2 h 5 min
Bit rate : 36.2 kb/s
Count of elements : 3346
Stream size : 32.5 MiB (0%)
Title : Eng {SDH)
Language : English
Default : No
Forced : No
Скріншоти
Джерело: &
Подяка за звук п. Sando7 та спільноті
Особиста оцінка: 10 - без зайвих вагань рекомендую всім!


Золотий реліз (завантажене не впливає на рейтинг)
 Трекер:    Зареєстрований   

Завантажити / скачати фільм українською



відео для новачків



 Зареєстрований:   2019-06-23 18:52
 Розмір:   39.11 GB 
 Оцінка фільму:   9.9/10 (Голосів: 14)
   
Інші релізи
   Острів / The Island (2005) AVC 2xUkr/Eng | Sub Eng staf777  3 / 0   3.86 GB   2019-06-23 22:05 
   Острів / The Island (2005) 720p 2xUkr/Eng Sando7  6 / 0   11.19 GB   2014-02-08 02:32 
   Острів / The Island (2005) 2xUkr patriot2305  4 / 0   1.65 GB   2014-02-06 21:12 
staf777 
Відео Гуртом - підтримка та поширення
Відео Гуртом - підтримка та поширення


З нами з: 16.11.16
Востаннє: 12.08.20
Повідомлень: 3937

2019-06-23 19:12  
Добре кіно
MakRA 
VIP


З нами з: 11.11.18
Востаннє: 14.08.20
Повідомлень: 1093

2019-06-23 19:21  
staf777
Так, Майкл Бей вміє знімати. І як не дивно, я цей фільм подивився через 10 років після виходу Happy і то в поганенькій якості.

Lyolic 
VIP


З нами з: 04.08.09
Востаннє: 13.08.20
Повідомлень: 528

2020-05-27 00:09  
Якось пропустив цей фільм, а фільм таки норм, навіть дуже
хоча і є ляпи

Відбиток пальця формується рандомно під час росту, тому навіть у клона буде унікальний
https://www.youtube.com/watch?v=96uQxwOYdg8
Хоча може там сканер кривий був )
Ще щось було
та то дрібниці )

MakRA 
VIP


З нами з: 11.11.18
Востаннє: 14.08.20
Повідомлень: 1093

2020-05-27 01:28  
Lyolic
Як і я Happy
MakRA написано:
Так, Майкл Бей вміє знімати. І як не дивно, я цей фільм подивився через 10 років після виходу і то в поганенькій якості.

А фільм класний, подивитися в якості - насолода для очей.

Ваш часовий пояс: GMT + 2 Години

Нова тема   Відповісти