Досконалість / The Perfection (2018) 1080p Eng | sub Ukr

Нові коментарі

Нова тема   Відповісти
Останній раз роздавалося Vitt (2019-07-20)
Автор Повідомлення
Chupacabr007 
Свій


З нами з: 07.07.15
Востаннє: 19.07.19
Повідомлень: 65

2019-06-23 12:52  
Досконалість / The Perfection (2018) 1080p Eng | sub Ukr

Досконалість / The Perfection (2018) 1080p Eng | sub Ukr


Жанр: драма, жахи, трилер
Країна: США



Кінокомпанія: Capstone Film Group, Netflix
Режисер: Річард Шепард
Актори: Еллісон Вільямс, Лоґан Браунінґ, Стівен Вебер, Грем Даффі, Аланія Гоффман,

Сюжет:
Коли проблемний музичний вундеркінд Шарлотта зустрічає Елізабет, нову зірку своєї колишньої школи, зустріч посилає обох музикантів по зловісному шляху з шокуючими наслідками.


Тривалість: 01:30:34
Якість:
Відео:
кодек:
розмір кадру: 1920 х 1080
бітрейт: 3650 кб/с

Аудіо:
мова: англійська
переклад: оригінал
кодек: E- 5.1
бітрейт: 640 кб/с

Субтитри:
мова: українська
тип: програмні (м'які)
формат: *.srt
переклад: [SubAutumn]
Скріншоти







Info
General
Complete name : D:\SubAutumn\Films\The Perfection\The Perfection (2018) [Eng Sub.Ukr] 1080p [Hurtom].
Format :
Format version : Version 4 / Version 2
File size : 2.70 GiB
Duration : 1h 30mn
Overall bit rate mode : Variable
Overall bit rate : 4 265 Kbps
Movie name : The Perfection (2018) [Eng Sub.Ukr] 1080p [Hurtom]
Encoded date : UTC 2019-06-23 08:58:33
Writing application : v6.5.0 ('Isn't she lovely') built on Oct 20 2013 12:50:05
Writing library : libebml v1.3.0 + v1.4.1

Video
ID : 1
Format : AVC
Format/Info : Advanced Video Codec
Format profile : [email protected]
Format settings, CABAC : Yes
Format settings, ReFrames : 3 frames
Codec ID : V_MPEG4/ISO/AVC
Duration : 1h 30mn
Bit rate mode : Variable
Bit rate : 3 650 Kbps
Maximum bit rate : 5 475 Kbps
Width : 1 920 pixels
Height : 1 080 pixels
Display aspect ratio : 16:9
Frame rate mode : Constant
Frame rate : 23.976 fps
Color space : YUV
Chroma subsampling : 4:2:0
Bit depth : 8 bits
Scan type : Progressive
Bits/(Pixel*Frame) : 0.073
Stream size : 2.24 GiB (83%)
Writing library : core 148 r2715 7e75228
Encoding settings : cabac=1 / ref=3 / deblock=1:0:0 / analyse=0x1:0x111 / me=umh / subme=10 / psy=1 / psy_rd=1.00:0.00 / mixed_ref=1 / me_range=24 / chroma_me=1 / trellis=2 / 8x8dct=0 / cqm=0 / deadzone=21,11 / fast_pskip=1 / chroma_qp_offset=-2 / threads=8 / lookahead_threads=1 / sliced_threads=0 / nr=0 / decimate=1 / interlaced=0 / bluray_compat=0 / stitchable=1 / constrained_intra=0 / bframes=2 / b_pyramid=0 / b_adapt=2 / b_bias=0 / direct=3 / weightb=1 / open_gop=0 / weightp=2 / keyint=48 / keyint_min=25 / scenecut=0 / intra_refresh=0 / rc_lookahead=48 / rc=2pass / mbtree=1 / bitrate=3650 / ratetol=1.0 / qcomp=0.50 / qpmin=6 / qpmax=51 / qpstep=4 / cplxblur=20.0 / qblur=0.5 / vbv_maxrate=5475 / vbv_bufsize=7300 / nal_hrd=vbr / filler=0 / ip_ratio=1.40 / aq=1:1.00
Language : English
Default : Yes
Forced : No

Audio
ID : 2
Format : E-AC-3
Format/Info : Audio Coding 3
Format settings, Endianness : Big
Codec ID : A_EAC3
Duration : 1h 30mn
Bit rate mode : Constant
Bit rate : 640 Kbps
Channel(s) : 6 channels
Channel positions : Front: L C R, Side: L R, LFE
Sampling rate : 48.0 KHz
Compression mode : Lossy
Stream size : 415 MiB (15%)
Title : Original
Language : English
Default : No
Forced : No

Text
ID : 3
Format : UTF-8
Codec ID : S_TEXT/UTF8
Codec ID/Info : UTF-8 Plain Text
Title : The Perfection (2018) [Eng Sub.Ukr] 1080p [Hurtom]
Language : Ukrainian
Default : Yes
Forced : No
Джерело:


 Трекер:    Зареєстрований   

Завантажити / скачати фільм українською



відео для новачків



 Зареєстрований:   2019-06-23 12:52
 Розмір:   2.7 GB 
 Оцінка фільму:   -/10 (Голосів: 0)
   
Ваш часовий пояс: GMT + 2 Години

Нова тема   Відповісти