Певний магічний Індекс / To Aru Majutsu no Index (сезон 1) (2008) 1080p Jap | Ukr Sub

Нові коментарі

Нова тема   Відповісти
Автор Повідомлення
Arch Enemy 
VIP


З нами з: 30.08.12
Востаннє: 23.02.20
Повідомлень: 1807

2019-06-23 00:05  
Певний магічний Індекс / To Aru Majutsu no Index
(сезон 1) (2008) 1080p Jap | Ukr Sub


Вікове обмеження: 13+



Країна: Японія
Період трансляції: з 05.10.2008 по 19.03.2009
Жанр: пригоди, комедія, містика, фантастика
Аніместудія: J.C.STAFF
Режисер: Нішікіорі Хіроші
Сейю: Ацуші Абе, Юка Іґучі, Остін Тіндл, Ріна Сато та інші.

Сюжет: Дія розгортається у паралельному світі, де наука співіснує з магією, і надприродні здібності давно нікого не дивують. Їх носії поділяються на дві категорії: есперів, які в результаті мутації отримали один, нехай і сильний дар, і магів, які хоча й слабші, але діапазон можливостей у них набагато ширший. Юних есперів з усієї Японії збирають у єдиному навчальному центрі – місті під назвою Академія Сіті. Там і живе наш головний герой Каміджьо Тома. Дар у хлопця вельми специфічний: його права рука – універсальний відбивач, тобто, зводить нанівець будь-яку парафізичну, магічну чи божественну дію. А раз так, то й ті нечисленні зернята щастя, які доля йому посилає, до нього просто не доходять, і все його життя – суцільне западло (його улюблене слівце). То на телефон наступить, то не с тими хлопцями зв’яжеться, то знайде на поручнях власного балкону на рідкість чарівне і голодне юне створіння в костюмі монашки…

А юне створіння, від’ївшись і прийшовши до тями, радісно повідомило, що звати її Індекс, а родом вона з Англії, де втекла з таємного церковного ордену. Браття-монахи заклали в пам’ять дівчини вміст більше ста тисяч заборонених магічних книг, перетворивши її на живу бібліотеку з покажчиком, тобто, «індексом». Зрозуміло, подібну цінність тримали під суворим наглядом, але їй це не сподобалось - свободи захотілося, так би мовити… І в результаті разом із несподіваною гостею у Томи додалося відразу дві проблеми. Перша – по сліду втікачки йдуть могутні маги-мисливці, та й місцеві авторитети вже зацікавилися. Друга – такий масив інформації без регулярної «техпідтримки» незабаром просто вб’є носія. І давай як хочеш, Томо, а щоб усе повирішував. Отаке-от западло…

Кількість серій: 24 (1 серія / ~24 хв.)
Перелік серій
01. Академія-Сіті
02. Інокентій: Святий мисливець на відьом
03. Несесаріус: Церква необхідного зла
04. Виняткова пам'ять
05. Крайній термін: північ
06. Руйнівник бар'єрів
07. Культ науки: школа Місава
08. Арс Маґна: золота алхімія
09. Кров Древніх: убивця вампірів
10. Місака Мікото: сестриця
11. Сестри
12. Шостий рівень: абсолютна сила
13. Акселератор: Дорога в один кінець
14. Слабкий і сильний
15. Падіння Янгола
16. Каміджьо Тоя: батько
17. Архангел Михаїл: сила Господа
18. Копія: фальсифікатор
19. Останнє замовлення: кінець
20. Код вірусу: останній сигнал
21. Стоп-відлік: невідома сутність
22. Ґолем
23. Казакірі Хьока: друг
24. Уявний район: Відомство п'яти елементів

Відео:

якість:
контейнер:
кодек:
частота кадрів: 23.976 кадрів/сек.
розмір кадру: 1920х1080 пікс.
бітрейт: ~3200 кбіт/сек.
бітність: 10 біт

Аудіо:
мова: японська, оригінал
кодек:
кількість каналів: 2.0
бітрейт: ~700 кбіт/сек.
частота: 48000 Гц

Субтитри:
мова: українська, повні
формат:
тип: м'які, внутрішні

Переклад: MadGuy
Джерело перекладу та релізу: AniUA
Скріншоти



MI
General
Unique ID : 216077679604605943376754527010209181952 (0xA28F0C1EE526CC8B902E8F28F834B100)
Complete name : D:\Anime\Toaru_Majutsu_no_Index_[BD]_[1080p]_[UkrSub]\1 сезон\Toaru_Majutsu_no_Index_-_01.
Format :
Format version : Version 4 / Version 2
File size : 676 MiB
Duration : 23 min 41 s
Overall bit rate mode : Variable
Overall bit rate : 3 989 kb/s
Encoded date : UTC 2019-06-19 16:15:40
Writing application : v13.0.0 ('The Juggler') 64bit
Writing library : libebml v1.3.4 + v1.4.5
Attachments : tahoma.ttf / KozMinPr6N-Bold.otf / georgiab.ttf / georgia.ttf / BOMGcomJeffCampbell.ttf / BarnaulGrotesk.otf / Adventure.ttf / timesbd.ttf / tahomabd.ttf

Video
ID : 1
Format : AVC
Format/Info : Advanced Video Codec
Format profile : High [email protected]
Format settings : CABAC / 13 Ref Frames
Format settings, CABAC : Yes
Format settings, ReFrames : 13 frames
Codec ID : V_MPEG4/ISO/AVC
Duration : 23 min 41 s
Bit rate : 3 223 kb/s
Width : 1 920 pixels
Height : 1 080 pixels
Display aspect ratio : 16:9
Frame rate mode : Constant
Frame rate : 23.976 (24000/1001) FPS
Color space : YUV
Chroma subsampling : 4:2:0
Bit depth : 10 bits
Scan type : Progressive
Bits/(Pixel*Frame) : 0.065
Stream size : 546 MiB (81%)
Writing library : core 136 r2348+704+51 d1baef6 tMod [[email protected]:2:0 X86_64]
Encoding settings : cabac=1 / ref=13 / deblock=1:-2:-2 / analyse=0x3:0x133 / me=tesa / subme=10 / psy=1 / fade_compensate=0.00 / psy_rd=0.60:0.15 / mixed_ref=1 / me_range=32 / chroma_me=1 / trellis=2 / 8x8dct=1 / cqm=0 / deadzone=21,11 / fast_pskip=0 / chroma_qp_offset=-3 / threads=16 / lookahead_threads=4 / sliced_threads=0 / nr=0 / decimate=1 / interlaced=0 / bluray_compat=0 / constrained_intra=0 / fgo=0 / bframes=12 / b_pyramid=2 / b_adapt=2 / b_bias=0 / direct=3 / weightb=1 / open_gop=0 / weightp=2 / keyint=480 / keyint_min=1 / scenecut=40 / intra_refresh=0 / rc_lookahead=60 / rc=crf / mbtree=1 / crf=16.5000 / qcomp=0.75 / qpmin=0:0:0 / qpmax=81:81:81 / qpstep=5 / ip_ratio=1.40 / aq=3:0.80 / aq-sensitivity=10.00 / aq-factor=1.00:1.00:1.00 / aq2=0 / aq3=0
Default : Yes
Forced : No
Color range : Limited
Color primaries : BT.709

Audio
ID : 2
Format :
Format/Info : Free Lossless Audio Codec
Codec ID : A_FLAC
Duration : 23 min 41 s
Bit rate mode : Variable
Bit rate : 702 kb/s
Channel(s) : 2 channels
Channel layout : L R
Sampling rate : 48.0 kHz
Frame rate : 11.719 FPS (4096 SPF)
Bit depth : 16 bits
Compression mode : Lossless
Stream size : 119 MiB (18%)
Title : Audio
Writing library : libFLAC 1.3.0 (UTC 2013-05-26)
Language : Japanese
Default : Yes
Forced : No

Text
ID : 3
Format :
Codec ID : S_TEXT/
Codec ID/Info : Advanced Sub Station Alpha
Duration : 23 min 35 s
Bit rate : 157 b/s
Count of elements : 360
Compression mode : Lossless
Stream size : 27.3 KiB (0%)
Title : Subs by MadGuy
Language : Ukrainian
Default : Yes
Forced : Yes

Menu
00:00:00.000 : en:Chapter 01
00:00:32.032 : en:Chapter 02
00:02:01.996 : en:Chapter 03
00:13:31.018 : en:Chapter 04
00:21:54.980 : en:Chapter 05
00:23:24.986 : en:Chapter 06

Увага! Якщо бажаєте взяти дані субтитри для озвучування, спершу спитайте дозволу ►►► автора ◄◄◄!

Якщо вам подобаються наші релізи, і є бажання чимось допомогти проекту, то будемо раді, якщо ви підтримаєте нас фінансово. І, якщо хочете подякувати за якесь конкретне аніме, або форсувати процес озвучення, прохання вказати у коментарі до переказу.
Підтримати/подякувати «AniUA»
Також у нас можна замовити переклад або озвучення
.


Авторський реліз (завантажувати можна без реєстрації)
 Трекер:    Зареєстрований   

Завантажити / скачати аніме українською



відео для новачків



 Зареєстрований:   2019-06-23 00:05
 Розмір:   15.88 GB 
 Оцінка аніме:   10/10 (Голосів: 3)
   
Ваш часовий пояс: GMT + 2 Години

Нова тема   Відповісти