Помилково звинувачений / Wrongfully Accused (1998) 1080p 2xUkr/Eng | Sub Eng

Нові коментарі

Нова тема   Відповісти
Автор Повідомлення
MakRA 
VIP


З нами з: 11.11.18
Востаннє: 30.09.20
Повідомлень: 1120

2019-06-22 13:20  
Помилково звинувачений / Wrongfully Accused (1998) 1080p 2xUkr/Eng | Sub Eng

Помилково звинувачений / Wrongfully Accused (1998) 1080p 2xUkr/Eng | Sub Eng

Альтернативні постери:




Жанр: комедія, пародія, екшн, трилер
Країна: Німеччина, США



Кінокомпанія: Constantin Film, Morgan Creek Entertainment, Warner Brothers.
Режисер: Пет Профт [Pat Proft]
Актори: Леслі Нілсен [Leslie Nielsen], Річард Кренна [Richard Crenna], Келлі Ле Брок [Kelly LeBrock], Мелінда МакГроу [Melinda McGraw], Майкл Йорк [Michael York], Сандра Бернхард [Sandra Bernhard], Аарон Перл [Aaron Pearl], Леслі Джонс [Leslie Jones], Бенжамін Ретнер [Benjamin Ratner], Джерард Планкет [Gerard Plunkett].

Сюжет:
«Помилково звинувачений» (англ. Wrongfully Accused) — американсько-німецький кінофільм-пародія на популярні голлівудські фільми: «Втікач», «Титанік», «Місія нездійсненна», «Ігри патріотів», «Хоробре серце», «Зоряні війни», «Фатальний потяг», «Звичайні підозрювані», «На північ через північний захід» та інші. Варіанти перекладу назви — «Без вини винний».

Відомого скрипаля Райана Гаррісона (Леслі Нільсен) помилково звинувачують у вбивстві і засуджують до смертної кари, але дорогою у в'язницю йому вдається втекти. З цієї миті він починає розшукувати справжнього вбивцю — одноруку, одноногу та однооку людину. Окрім цього на Гаррісона полює судовий виконавець.

Цікаве про фільм:

-Касові збори склали 9,6 млн дол.
-У лікарні звучить оголошення для докторів Бентона, Картера, Гріна, Вівер та Росса – це прізвища головних героїв телесеріалу «Швидка допомога»; прізвище доктора Кімбла з іншого оголошення відсилає до фільму «Утікач».
-Сценарист Пет Профт, який народився в Міннесоті, дав кільком персонажам прізвища за назвами міст свого рідного штату (Ґудг'ю та інші). Ім'я головного героя складається з імені актора Гаррісона Форда (фільм пародіює його роль в «Утікачі») та імені його персонажу — Джек Раян — у фільмах «Пряма і явна загроза» й «Ігри патріотів».


Тривалість: 01:25:55
Якість: 1080p
Відео:
кодек:
розмір кадру: 1916 х 1076
бітрейт: 5321 кб/с

Аудіо # 1:
мова: українська
переклад: багатоголосий закадровий
кодек: 2.0
бітрейт: 192 кб/с

Аудіо # 2:
мова: українська
переклад: багатоголосий закадровий
кодек: 2.0
бітрейт: 192 кб/с

Аудіо # 3:
мова: англійська
переклад: оригінал
кодек: 5.1
бітрейт: 384 кб/с

Субтитри: (Full)
мова: англійська
тип: програмні (м'які)
формат: *.srt
Info
General
Unique ID : 291078630421491049211040996252791713030 (0xDAFBB47E2819527D6189797553D1AD06)
Complete name : F:\Комедії\Wrongfully Accused (1998) 1080p 2xUkrEng Sub Eng [Hurtom].
Format :
Format version : Version 4 / Version 2
File size : 3.65 GiB
Duration : 1 h 26 min
Overall bit rate mode : Variable
Overall bit rate : 6 083 kb/s
Movie name : Помилково звинувачений / Wrongfully Accused (1998) 1080p 2xUkr/Eng | Sub Eng [Hurtom]
Encoded date : UTC 2019-06-22 07:43:11
Writing application : v25.0.0 ('Prog Noir') 64-bit
Writing library : libebml v1.3.6 + v1.4.9

Video
ID : 1
Format : AVC
Format/Info : Advanced Video Codec
Format profile : [email protected]
Format settings, CABAC : Yes
Format settings, RefFrames : 2 frames
Codec ID : V_MPEG4/ISO/AVC
Duration : 1 h 25 min
Bit rate mode : Variable
Bit rate : 5 321 kb/s
Maximum bit rate : 768 kb/s
Width : 1 916 pixels
Height : 1 076 pixels
Display aspect ratio : 16:9
Frame rate mode : Constant
Frame rate : 23.976 (24000/1001) FPS
Original frame rate : 25.000 FPS
Color space : YUV
Chroma subsampling : 4:2:0
Bit depth : 8 bits
Scan type : Progressive
Bits/(Pixel*Frame) : 0.108
Stream size : 3.19 GiB (87%)
Title : Wrongfully Accused (1998) 1080p 2xUkr/Eng | Sub Eng [Hurtom]
Language : Ukrainian
Default : Yes
Forced : Yes

Audio #1
ID : 2
Format : AC-3
Format/Info : Audio Coding 3
Format settings, Endianness : Big
Codec ID : A_AC3
Duration : 1 h 25 min
Bit rate mode : Constant
Bit rate : 192 kb/s
Channel(s) : 2 channels
Channel positions : Front: L R
Sampling rate : 48.0 kHz
Frame rate : 31.250 FPS (1536 SPF)
Bit depth : 16 bits
Compression mode : Lossy
Delay relative to video : 17 s 0 ms
Stream size : 117 MiB (3%)
Title : MVO [1+1] 2.0
Language : Ukrainian
Service kind : Complete Main
Default : Yes
Forced : Yes

Audio #2
ID : 3
Format : AC-3
Format/Info : Audio Coding 3
Format settings, Endianness : Big
Codec ID : A_AC3
Duration : 1 h 25 min
Bit rate mode : Constant
Bit rate : 192 kb/s
Channel(s) : 2 channels
Channel positions : Front: L R
Sampling rate : 48.0 kHz
Frame rate : 31.250 FPS (1536 SPF)
Bit depth : 16 bits
Compression mode : Lossy
Delay relative to video : 17 s 0 ms
Stream size : 117 MiB (3%)
Title : MVO [K1] 2.0
Language : Ukrainian
Service kind : Complete Main
Default : No
Forced : No

Audio #3
ID : 4
Format : AC-3
Format/Info : Audio Coding 3
Format settings, Endianness : Big
Codec ID : A_AC3
Duration : 1 h 26 min
Bit rate mode : Constant
Bit rate : 384 kb/s
Channel(s) : 6 channels
Channel positions : Front: L C R, Side: L R, LFE
Sampling rate : 48.0 kHz
Frame rate : 31.250 FPS (1536 SPF)
Bit depth : 16 bits
Compression mode : Lossy
Stream size : 236 MiB (6%)
Title : Original 5.1
Language : English
Service kind : Complete Main
Default : No
Forced : No

Text
ID : 5
Format : UTF-8
Codec ID : S_TEXT/UTF8
Codec ID/Info : UTF-8 Plain Text
Duration : 1 h 17 min
Bit rate : 49 b/s
Count of elements : 909
Stream size : 28.4 KiB (0%)
Title : Eng (Full)
Language : English
Default : No
Forced : No
Скріншоти
Джерело: &
Особиста оцінка: 10 - без зайвих вагань рекомендую всім!

Подяка пану Givi за звукові доріжки і панам xslim, Sando7, 4erkov, Hulk1987, Tarasyk за синхронізацію


Срібний реліз (на рейтинг впливає 50% завантаженого)
 Трекер:    Зареєстрований   

Завантажити / скачати фільм українською



відео для новачків



 Зареєстрований:   2019-06-22 13:20
 Розмір:   3.65 GB 
 Оцінка фільму:   9.6/10 (Голосів: 21)
   
Інші релізи
Ваш часовий пояс: GMT + 2 Години

Нова тема   Відповісти