Диво-парк / Wonder Park (2019) 1080p H.265 Ukr/Eng | Sub Eng

Нові коментарі

Нова тема   Відповісти
Автор Повідомлення
Anonymous 







2019-06-21 21:10  
Диво-парк / Wonder Park (2019) 1080p H.265 Ukr/Eng | Sub Eng

Диво-парк / Wonder Park (2019) 1080p H.265 Ukr/Eng | Sub Eng


Жанр: комедія, мультфільм, пригоди, сімейний, фентезі
Країна: Іспанія, США
Кінокомпанія: Paramount Animation, Midnight Radio, Nickelodeon Movies
Режисер: Джош Аппелбаум, Андре Немец, Роберт Гордон
Актори: Дженніфер Гарнер, Кен Хадсон Кемпбелл, Кенан Томпсон, Міла Куніс, Джон Олівер, Кен Жонг, Норберт Лео Батц, Меттью Бродерік

Сюжет:
Винахідлива Джун створила модель особливого місця, де панує справжня магія, – неймовірного парку атракціонів. Та дівчинка навіть не здогадується, що Диво-парк існує не тільки в її уяві – на неї чекають неймовірні пригоди, нові друзі та важлива місія.

Тривалість: 01:25:16
Якість:
Відео:
кодек: H.265 (HEVC)
розмір кадру: 1920 x 800
бітрейт: 6868 кб/с
бітова глибина: 10 біт
Увага! Перед завантаженням переконайтесь, що ваш пристрій відтворення (та/або ПЗ) підтримує H.265 (HEVC)

Аудіо # 1:
мова: українська
переклад: професійний дубльований
кодек: AC-3 5.1
бітрейт: 384 кб/с

Аудіо # 2:
мова: англійська
переклад: оригінал
кодек: 5.1
бітрейт: 1537 кб/с

Субтитри # 1:
мова: українська (Forced),
тип: програмні (м'які)
формат: *.srt

Субтитри # 2:
мова: англійська (Full),
тип: програмні (м'які)
формат: *.srt

Субтитри # 3:
мова: англійська (SDH),
тип: програмні (м'які)
формат: *.srt


Info
Код:
General
Unique ID                                : 50998510010597298405766492993455331463 (0x265DF4AC59A1965256D14F2F022F1887)
Complete name                            : Wonder Park (2019) 1080p H.265 [UKR_ENG] [Hurtom].
Format                                   :
Format version                           : Version 4 / Version 2
File size                                : 5.24 GiB
Duration                                 : 1 h 25 min
Overall bit rate                         : 8 791 kb/s
Movie name                               : Диво-парк / Wonder Park (2019)
Encoded date                             : UTC 2019-07-15 05:19:22
Writing application                      : v20.0.0 ('I Am The Sun') 64-bit
Writing library                          : libebml v1.3.5 + v1.4.8
Cover                                    : Yes
Attachments                              : Cover.jpg

Video
ID                                       : 1
Format                                   : HEVC
Format/Info                              : High Efficiency Video Coding
Format profile                           : Main [email protected]@High
Codec ID                                 : V_MPEGH/ISO/HEVC
Duration                                 : 1 h 25 min
Bit rate                                 : 6 868 kb/s
Width                                    : 1 920 pixels
Height                                   : 800 pixels
Display aspect ratio                     : 2.40:1
Frame rate mode                          : Constant
Frame rate                               : 23.976 (24000/1001) FPS
Color space                              : YUV
Chroma subsampling                       : 4:2:0
Bit depth                                : 10 bits
Bits/(Pixel*Frame)                       : 0.186
Stream size                              : 4.09 GiB (78%)
Title                                    : Диво-парк / Wonder Park (2019)
Language                                 : English
Default                                  : Yes
Forced                                   : No
Color range                              : Limited
Color primaries                          : BT.709
Transfer characteristics                 : BT.709
Matrix coefficients                      : BT.709

Audio #1
ID                                       : 2
Format                                   : AC-3
Format/Info                              : Audio Coding 3
Codec ID                                 : A_AC3
Duration                                 : 1 h 25 min
Bit rate mode                            : Constant
Bit rate                                 : 384 kb/s
Channel(s)                               : 6 channels
Channel positions                        : Front: L C R, Side: L R, LFE
Sampling rate                            : 48.0 kHz
Frame rate                               : 31.250 FPS (1536 SPF)
Bit depth                                : 16 bits
Compression mode                         : Lossy
Stream size                              : 234 MiB (4%)
Title                                    : ПД - 5.1 @ 384 kbps - iTunes
Language                                 : Ukrainian
Service kind                             : Complete Main
Default                                  : Yes
Forced                                   : Yes

Audio #2
ID                                       : 3
Format                                   :
Format/Info                              : Digital Theater Systems
Codec ID                                 : A_DTS
Duration                                 : 1 h 25 min
Bit rate mode                            : Constant
Bit rate                                 : 1 536 kb/s
Channel(s)                               : 6 channels
Channel positions                        : Front: L C R, Side: L R, LFE
Sampling rate                            : 48.0 kHz
Frame rate                               : 93.750 FPS (512 SPF)
Bit depth                                : 16 bits
Compression mode                         : Lossy
Stream size                              : 937 MiB (17%)
Title                                    : Original - , 6 ch, 1536 Кбт/с
Language                                 : English
Default                                  : No
Forced                                   : No

Text #1
ID                                       : 4
Format                                   : UTF-8
Codec ID                                 : S_TEXT/UTF8
Codec ID/Info                            : UTF-8 Plain Text
Duration                                 : 1 h 11 min
Bit rate                                 : 0 b/s
Count of elements                        : 5
Stream size                              : 116 Bytes (0%)
Title                                    : Forced
Language                                 : Ukrainian
Default                                  : Yes
Forced                                   : No

Text #2
ID                                       : 5
Format                                   : UTF-8
Codec ID                                 : S_TEXT/UTF8
Codec ID/Info                            : UTF-8 Plain Text
Duration                                 : 1 h 17 min
Bit rate                                 : 63 b/s
Count of elements                        : 1101
Stream size                              : 35.9 KiB (0%)
Title                                    : Full
Language                                 : English
Default                                  : No
Forced                                   : No

Text #3
ID                                       : 6
Format                                   : UTF-8
Codec ID                                 : S_TEXT/UTF8
Codec ID/Info                            : UTF-8 Plain Text
Duration                                 : 1 h 19 min
Bit rate                                 : 75 b/s
Count of elements                        : 1498
Stream size                              : 43.9 KiB (0%)
Title                                    : SDH
Language                                 : English
Default                                  : No
Forced                                   : No

Menu
00:00:00.000                             : en:00:00:00.000
00:06:34.811                             : en:00:06:34.811
00:12:05.475                             : en:00:12:05.475
00:20:22.847                             : en:00:20:22.847
00:25:49.590                             : en:00:25:49.590
00:33:03.648                             : en:00:33:03.648
00:39:14.185                             : en:00:39:14.185
00:47:39.648                             : en:00:47:39.648
00:54:39.443                             : en:00:54:39.443
01:00:32.462                             : en:01:00:32.462
01:06:17.807                             : en:01:06:17.807
01:13:12.054                             : en:01:13:12.054
01:17:49.748                             : en:01:17:49.748
Світлини




Джерело: &
Особиста оцінка: 0 - не дивився


 Трекер:    Зареєстрований   

Завантажити / скачати мультфільм українською



відео для новачків



 Зареєстрований:   2019-07-15 08:13
 Розмір:   5.24 GB 
 Оцінка мультфільму:   9.6/10 (Голосів: 9)
   
Інші релізи
   Диво-парк / Wonder Park (2019) antik_2008  36 / 0   1.47 GB   2019-07-15 12:22 
   Диво-парк / Wonder Park (2019) Remux 1080p Ukr/Eng | Sub Eng antik_2008  11 / 0   19.34 GB   2019-07-15 09:56 
   Диво-парк / Wonder Park (2019) 1080p Ukr/Eng | Sub Eng antik_2008  3 / 0   8.34 GB   2019-07-14 22:07 
   Диво-парк / Wonder Park (2019) AVC Ukr/Eng | Sub Eng 11FrYkT  17 / 1   2.28 GB   2019-07-14 07:45 
   Диво-парк / Wonder Park (2019) 720p Ukr/Eng | Sub Eng 11FrYkT  10 / 0   3.49 GB   2019-07-14 07:43 
Anonymous 







2019-07-15 08:13  
Замінив першу доріжку на якіснішу.
Ваш часовий пояс: GMT + 2 Години

Нова тема   Відповісти