Ми / Us (2019) 1080p H.265 Ukr/Eng | Sub Eng

Нові коментарі

Нова тема   Відповісти
Останній раз роздавалося Vytal6ka (2019-12-08)
Автор Повідомлення
Anonymous 







2019-06-21 21:06  
Ми / Us (2019) 1080p H.265 Ukr/Eng | Sub Eng

Ми / Us (2019) 1080p H.265 Ukr/Eng | Sub Eng


Жанр: трилер, жахи
Країна: США
Кінокомпанія: Universal Pictures, Monkeypaw Productions, Dentsu, Fuji Television Network
Режисер: Джордан Піл
Актори: Лупіта Ніонґо, Вінстон Дьюк, Елізабет Мосс, Тім Гайдекер, Шагаді Райт Джозеф, Еван Алекс, Ях'я Абдул-Матін II, Анна Диоп, Калі Шелдон, Даррел Черні та інші

Сюжет:
Дружня родина та Аделеїди Вілсони разом з двома дітьми вирушила на відпочинок. Вони оселилися у своєму пляжному будиночку на узбережжі Каліфорнії, аби провести літо біля моря у компанії друзів. Після насиченого дня сім’я готується до сну. Та доброї ночі побажати один одному не вийде. Поблизу їх будинку з’являються незнайомці, що тримаються за руки. Познайомитися з ними не виходить – ці четверо поводяться доволі агресивно та не приховують бажання вбити Вілсонів. Скоро стає зрозуміло, що ці четверо – це вони самі. І відомий вислів про те, що ти сам є для себе головним ворогом, набуває для відпочивальників нового змісту. Від такого ворога не втекти, бо він знає де ти, що ти робиш та навіть що ти думаєш.

Тривалість: 01:56:27
Якість:
Відео:
кодек: H.265 (HEVC)
розмір кадру: 1920 x 804
бітрейт: 2 315 кб/с
бітова глибина: 10 біт
Увага! Перед завантаженням переконайтесь, що ваш пристрій відтворення (та/або ПЗ) підтримує H.265 (HEVC)

Аудіо # 1:
мова: українська
переклад: професійний дубльований
кодек: AC-3 2.0
бітрейт: 192 кб/с

Аудіо # 2:
мова: англійська
переклад: оригінал
кодек: 5.1
бітрейт: 1536 кб/с

Субтитри # 1:
мова: англійська (Full),
тип: програмні (м'які)
формат: *.srt


Info
Код:
General
Unique ID                                : 48224011942018313143441681483262600323 (0x24479B5B6C6B3ADFDE62ADE37E382483)
Complete name                            : Us (2019) 1080p H.265 [UKR_ENG] [Hurtom].
Format                                   :
Format version                           : Version 4
File size                                : 3.29 GiB
Duration                                 : 1 h 56 min
Overall bit rate                         : 4 045 kb/s
Movie name                               : Ми / Us (2019)
Encoded date                             : UTC 2019-06-29 11:40:50
Writing application                      : v20.0.0 ('I Am The Sun') 64-bit
Writing library                          : libebml v1.3.5 + v1.4.8
Cover                                    : Yes
Attachments                              : cover.jpg

Video
ID                                       : 1
Format                                   : HEVC
Format/Info                              : High Efficiency Video Coding
Format profile                           : Main [email protected]@High
Codec ID                                 : V_MPEGH/ISO/HEVC
Duration                                 : 1 h 56 min
Bit rate                                 : 2 315 kb/s
Width                                    : 1 920 pixels
Height                                   : 804 pixels
Display aspect ratio                     : 2.40:1
Frame rate mode                          : Constant
Frame rate                               : 23.976 (24000/1001) FPS
Color space                              : YUV
Chroma subsampling                       : 4:2:0
Bit depth                                : 10 bits
Bits/(Pixel*Frame)                       : 0.063
Stream size                              : 1.88 GiB (57%)
Title                                    : Ми / Us (2019)
Writing library                          : x265 2.9+9-f74003e88622:[Windows][GCC 8.2.0][64 bit] 10bit
Encoding settings                        : cpuid=1111039 / frame-threads=13 / numa-pools=12 / wpp / no-pmode / no-pme / no-psnr / no-ssim / log-level=3 / input-csp=1 / input-res=1920x804 / interlace=0 / total-frames=0 / level-idc=41 / high-tier=1 / uhd-bd=0 / ref=5 / allow-non-conformance / no-repeat-headers / annexb / no-aud / no-hrd / info / hash=0 / no-temporal-layers / open-gop / min-keyint=23 / keyint=240 / gop-lookahead=0 / bframes=8 / b-adapt=2 / b-pyramid / bframe-bias=0 / rc-lookahead=60 / lookahead-slices=4 / scenecut=40 / radl=0 / no-intra-refresh / ctu=64 / min-cu-size=8 / rect / amp / max-tu-size=32 / tu-inter-depth=4 / tu-intra-depth=4 / limit-tu=0 / rdoq-level=2 / dynamic-rd=0.00 / no-ssim-rd / signhide / no-tskip / nr-intra=0 / nr-inter=0 / no-constrained-intra / no-strong-intra-smoothing / max-merge=5 / limit-refs=2 / limit-modes / me=3 / subme=7 / merange=57 / temporal-mvp / weightp / weightb / no-analyze-src-pics / deblock=-3:-3 / no-sao / no-sao-non-deblock / rd=6 / no-early-skip / rskip / no-fast-intra / no-tskip-fast / no-cu-lossless / b-intra / no-splitrd-skip / rdpenalty=0 / psy-rd=2.00 / psy-rdoq=1.00 / no-rd-refine / no-lossless / cbqpoffs=0 / crqpoffs=0 / rc=crf / crf=20.0 / qcomp=0.70 / qpstep=4 / stats-write=0 / stats-read=0 / vbv-maxrate=50000 / vbv-bufsize=50000 / vbv-init=0.9 / crf-max=0.0 / crf-min=0.0 / ipratio=1.40 / pbratio=1.30 / aq-mode=2 / aq-strength=1.00 / no-cutree / zone-count=0 / no-strict-cbr / qg-size=32 / no-rc-grain / qpmax=69 / qpmin=0 / no-const-vbv / sar=1 / overscan=0 / videoformat=5 / range=0 / colorprim=1 / transfer=1 / colormatrix=1 / chromaloc=0 / display-window=0 / max-cll=0,0 / min-luma=0 / max-luma=1023 / log2-max-poc-lsb=8 / vui-timing-info / vui-hrd-info / slices=1 / no-opt-qp-pps / no-opt-ref-list-length-pps / no-multi-pass-opt-rps / scenecut-bias=0.05 / no-opt-cu-delta-qp / aq-motion / no-hdr / no-hdr-opt / no-dhdr10-opt / no-idr-recovery-sei / analysis-reuse-level=5 / scale-factor=0 / refine-intra=0 / refine-inter=0 / refine-mv=0 / no-limit-sao / ctu-info=0 / no-lowpass-dct / refine-mv-type=0 / copy-pic=1 / max-ausize-factor=1.0 / no-dynamic-refine / no-single-sei
Language                                 : English
Default                                  : Yes
Forced                                   : No
Color range                              : Limited
Color primaries                          : BT.709
Transfer characteristics                 : BT.709
Matrix coefficients                      : BT.709

Audio #1
ID                                       : 2
Format                                   : AC-3
Format/Info                              : Audio Coding 3
Commercial name                          : Dolby Digital
Codec ID                                 : A_AC3
Duration                                 : 1 h 56 min
Bit rate mode                            : Constant
Bit rate                                 : 192 kb/s
Channel(s)                               : 2 channels
Channel layout                           : L R
Sampling rate                            : 48.0 kHz
Frame rate                               : 31.250 FPS (1536 SPF)
Bit depth                                : 16 bits
Compression mode                         : Lossy
Stream size                              : 160 MiB (5%)
Title                                    : ПД - iTunes - 2.0 @ 192 kbps
Language                                 : Ukrainian
Service kind                             : Complete Main
Default                                  : Yes
Forced                                   : Yes

Audio #2
ID                                       : 3
Format                                   :
Format/Info                              : Digital Theater Systems
Codec ID                                 : A_DTS
Duration                                 : 1 h 56 min
Bit rate mode                            : Constant
Bit rate                                 : 1 536 kb/s
Channel(s)                               : 6 channels
Channel layout                           : C L R Ls Rs LFE
Sampling rate                            : 48.0 kHz
Frame rate                               : 93.750 FPS (512 SPF)
Bit depth                                : 16 bits
Compression mode                         : Lossy
Stream size                              : 1.25 GiB (38%)
Title                                    : Original - 5.1 @ 1536 kbps
Language                                 : English
Default                                  : No
Forced                                   : No

Text
ID                                       : 4
Format                                   : UTF-8
Codec ID                                 : S_TEXT/UTF8
Codec ID/Info                            : UTF-8 Plain Text
Duration                                 : 1 h 49 min
Bit rate                                 : 35 b/s
Count of elements                        : 1038
Stream size                              : 28.6 KiB (0%)
Title                                    : Full
Language                                 : English
Default                                  : No
Forced                                   : No

Menu
00:00:00.000                             : en:Chapter 01
00:06:05.156                             : en:Chapter 02
00:11:25.351                             : en:Chapter 03
00:17:12.114                             : en:Chapter 04
00:23:24.653                             : en:Chapter 05
00:29:31.520                             : en:Chapter 06
00:36:07.791                             : en:Chapter 07
00:41:07.757                             : en:Chapter 08
00:48:08.302                             : en:Chapter 09
00:55:43.257                             : en:Chapter 10
01:03:00.318                             : en:Chapter 11
01:07:49.357                             : en:Chapter 12
01:14:25.294                             : en:Chapter 13
01:20:12.016                             : en:Chapter 14
01:25:25.954                             : en:Chapter 15
01:29:44.045                             : en:Chapter 16
01:35:21.674                             : en:Chapter 17
01:40:54.548                             : en:Chapter 18
01:47:36.909                             : en:Chapter 19
01:52:14.394                             : en:Chapter 20
Світлини





Джерело: &
Особиста оцінка: 0 - не дивився


 Трекер:    Зареєстрований   

Завантажити / скачати фільм українською



відео для новачків



 Зареєстрований:   2019-06-29 13:49
 Розмір:   3.29 GB 
 Оцінка фільму:   9.7/10 (Голосів: 10)
   
Інші релізи
   Клуб анонімних кілерів / Killers Anonymous (2019) Remux 1080p Ukr/Eng | Sub Eng staf777  6 / 0   17.65 GB   2019-09-06 13:18 
   Клуб анонімних кілерів / Killers Anonymous (2019) 1080p Ukr/Eng | Sub Eng staf777  19 / 0   8.17 GB   2019-09-06 11:48 
   Клуб анонімних кілерів / Killers Anonymous (2019) igor911  36 / 4   1.33 GB   2019-09-06 10:36 
   Клуб анонімних кілерів / Killers Anonymous (2019) 720p Ukr/Eng | Sub Eng 11FrYkT  15 / 0   3.53 GB   2019-09-06 09:56 
   Клуб анонімних кілерів / Killers Anonymous (2019) AVC Ukr/Eng | Sub Eng 11FrYkT  33 / 5   1.68 GB   2019-09-06 09:36 
   Завойовник Зім: Вхід у Флорпус / Invader Zim: Enter the Florpus (2019) antik_2008  26 / 0   1.02 GB   2019-09-01 01:29 
   Завойовник Зім: Вхід у Флорпус / Invader Zim: Enter the Florpus (2019) AVC Ukr/Eng Dark Invader  6 / 0   795 MB   2019-08-31 22:40 
   Завойовник Зім: Вихід Флорпуса / Invader Zim: Enter the Florpus (2019) 1080p Eng | Ukr Час_настал  2 / 0   859 MB   2019-08-29 17:45 
   Завойовник Зім: Вхід у Флорпус / Invader Zim: Enter the Florpus (2019) 1080p simpsonsua  14 / 0   1.98 GB   2019-08-29 13:47 
   Ми / Us (2019) Ukr/Eng Electroz  6 / 1   1.41 GB   2019-06-17 11:09 
   Ми / Us (2019) AVC Ukr/Eng | Sub Eng 11FrYkT  10 / 0   1.98 GB   2019-06-15 21:26 
   Ми / Us (2019) Remux 1080p Ukr/Eng | Sub Eng antik_2008  1 / 0   27.13 GB   2019-06-14 20:27 
   Ми / Us (2019) 1080p Ukr/Eng | Sub Eng staf777  4 / 0   10.47 GB   2019-06-12 20:25 
   Ми / Us (2019) 720p Ukr/Eng | Sub Eng 11FrYkT  5 / 0   3.68 GB   2019-06-12 17:17 
Anonymous 







2019-06-29 13:49  
Замінено відеоряд на більш якісний.
Mike88 
Новенький


З нами з: 21.10.08
Востаннє: 08.12.19
Повідомлень: 10

2019-06-29 13:57  
Anonymous
бітрейт відео зменшено втричі, як він може стати якіснішим?

Anonymous 







2019-06-29 14:02  
Mike88
За рахунок параметрів кодування.

Ваш часовий пояс: GMT + 2 Години

Нова тема   Відповісти