Викрадена принцеса: Руслан і Людмила / The Stolen Princess (2018) 1080p H.265 Ukr/Eng | Sub Eng

Нові коментарі

Нова тема   Відповісти
Автор Повідомлення
Anonymous 







2019-06-21 21:02  
Викрадена принцеса: Руслан і Людмила / The Stolen Princess (2018) 1080p H.265 Ukr/Eng | Sub Eng

Викрадена принцеса: Руслан і Людмила / The Stolen Princess (2018) 1080p H.265 Ukr/Eng | Sub Eng


Жанр: анімація, комедія, пригодницький, фентезі
Країна: Україна
Кінокомпанія: Animagrad, Film.ua
Режисер: Олег Маламуж
Актори: Надя Дорофєєва, Олексій "Пазітів" Завгородній, Євген Малуха, Сергій Притула, Юрій Горбунов, Олег "Фагот" Михайлюта, Микола Боклан, Єгор Крутоголов, Олександр Бережок, Євген Гашенко, Маша Єфросиніна, Пупсі Кіра, Дмитро "Monatik" Монатик, Аревік Арзуманова, Олександр Усик, Василь Вірастюк, Олег Волощенко, Роман Луцький.

Сюжет:
Ця дивовижна історія відбулась у чарівному місті Києві – за часів відважних воїнів, прекрасних принцес і могутніх чаклунів. Мандрівний артист Руслан, який мріє стати лицарем, зустрів прекрасну Мілу і закохався в неї, навіть не підозрюючи, що дівчина - донька київського князя. Але щастю закоханих не судилося тривати вічно: злий чаклун Чорномор з’явився в магічному вихорі і на очах Руслана викрав кохану, прагнучи перетворити силу її кохання на власну чаклунську могутність. Не роздумуючи, Руслан рушив у погоню за вкраденою принцесою, щоб, здолавши всі перешкоди та небезпеки на своєму шляху, довести, що справжня любов – сильніша за магію.

Тривалість: 01:30:52
Якість:
Відео:
кодек: H.265 (HEVC)
розмір кадру: 1920 x 808
бітрейт: 6 785 кб/с
бітова глибина: 10 біт
Увага! Перед завантаженням переконайтесь, що ваш пристрій відтворення (та/або ПЗ) підтримує H.265 (HEVC)

Аудіо # 1:
мова: українська
переклад: професійний дубльований | студія Postmodern
кодек: AC-3 2.0
бітрейт: 192 кб/с

Аудіо # 2:
мова: англійська
переклад: оригінал
кодек: 5.1
бітрейт: 768 кб/с

Субтитри # 1:
мова: англійська (SDH),
тип: програмні (м'які)
формат: *.srt


Info
Код:
General
Unique ID                                : 319325111830991257597428196237805114937 (0xF03BC78C75F369C43364C95DB25C5639)
Complete name                            : F:\Video\The Stolen Princess (2018) 1080p H.265 [UKR_ENG] [Hurtom].
Format                                   :
Format version                           : Version 4 / Version 2
File size                                : 4.92 GiB
Duration                                 : 1 h 30 min
Overall bit rate                         : 7 741 kb/s
Movie name                               : Викрадена принцеса: Руслан і Людмила / The Stolen Princess (2018)
Encoded date                             : UTC 2019-06-21 17:39:59
Writing application                      : v20.0.0 ('I Am The Sun') 64-bit
Writing library                          : libebml v1.3.5 + v1.4.8
Cover                                    : Yes
Attachments                              : Cover.jpg

Video
ID                                       : 1
Format                                   : HEVC
Format/Info                              : High Efficiency Video Coding
Format profile                           : Main [email protected]@High
Codec ID                                 : V_MPEGH/ISO/HEVC
Duration                                 : 1 h 30 min
Bit rate                                 : 6 785 kb/s
Width                                    : 1 920 pixels
Height                                   : 808 pixels
Display aspect ratio                     : 2.40:1
Frame rate mode                          : Constant
Frame rate                               : 24.000 FPS
Color space                              : YUV
Chroma subsampling                       : 4:2:0
Bit depth                                : 10 bits
Bits/(Pixel*Frame)                       : 0.182
Stream size                              : 4.31 GiB (88%)
Title                                    : Викрадена принцеса: Руслан і Людмила / The Stolen Princess (2018)
Language                                 : English
Default                                  : Yes
Forced                                   : No
Color range                              : Limited
Color primaries                          : BT.709
Transfer characteristics                 : BT.709
Matrix coefficients                      : BT.709

Audio #1
ID                                       : 2
Format                                   : AC-3
Format/Info                              : Audio Coding 3
Codec ID                                 : A_AC3
Duration                                 : 1 h 30 min
Bit rate mode                            : Constant
Bit rate                                 : 192 kb/s
Channel(s)                               : 2 channels
Channel positions                        : Front: L R
Sampling rate                            : 48.0 kHz
Frame rate                               : 31.250 FPS (1536 SPF)
Bit depth                                : 16 bits
Compression mode                         : Lossy
Delay relative to video                  : 500 ms
Stream size                              : 125 MiB (2%)
Title                                    : ПД - студія Postmodern
Language                                 : Ukrainian
Service kind                             : Complete Main
Default                                  : Yes
Forced                                   : Yes

Audio #2
ID                                       : 3
Format                                   :
Format/Info                              : Digital Theater Systems
Codec ID                                 : A_DTS
Duration                                 : 1 h 30 min
Bit rate mode                            : Constant
Bit rate                                 : 768 kb/s
Channel(s)                               : 6 channels
Channel positions                        : Front: L C R, Side: L R, LFE
Sampling rate                            : 48.0 kHz
Frame rate                               : 93.750 FPS (512 SPF)
Bit depth                                : 24 bits
Compression mode                         : Lossy
Stream size                              : 499 MiB (10%)
Title                                    : Original
Language                                 : English
Default                                  : No
Forced                                   : No

Text
ID                                       : 4
Format                                   : UTF-8
Codec ID                                 : S_TEXT/UTF8
Codec ID/Info                            : UTF-8 Plain Text
Duration                                 : 1 h 25 min
Bit rate                                 : 60 b/s
Count of elements                        : 1543
Stream size                              : 37.8 KiB (0%)
Title                                    : SDH
Language                                 : English
Default                                  : Yes
Forced                                   : No

Menu
00:00:00.000                             : :Chapter 01
00:11:29.416                             : :Chapter 02
00:23:15.083                             : :Chapter 03
00:36:36.500                             : :Chapter 04
00:51:35.750                             : :Chapter 05
01:00:42.708                             : :Chapter 06
01:09:26.625                             : :Chapter 07
01:20:36.791                             : :Chapter 08
Світлини





Джерело: &
Особиста оцінка: 0 - не дивився


Золотий реліз (завантажене не впливає на рейтинг)
 Трекер:    Зареєстрований   

Завантажити / скачати український мультфільм



відео для новачків



 Зареєстрований:   2019-06-21 21:02
 Розмір:   4.92 GB 
 Оцінка мультфільму:   7.9/10 (Голосів: 16)
   
SHEVA2018 
Новенький


З нами з: 24.09.18
Востаннє: 17.11.19
Повідомлень: 21

2019-10-02 18:46  
На разок може бути. Наші стараються може скоро до рівня Крижаного серця дістанем
jaral 
Відео Гуртом - підтримка та поширення
Відео Гуртом - підтримка та поширення


З нами з: 18.10.07
Востаннє: 18.11.19
Повідомлень: 890

2019-10-06 01:48  
SHEVA2018 написано:
Наші стараються може скоро до рівня Крижаного серця дістанем
З такою командою не дістанем, не/наші не стараються, наприклад звук українською бажає бути кращим, не можуть майже нічого гарного зробити для українського глядача. Всі іноземні переклади кращі, навіть саундтреки до пісень професійніші.
Ваш часовий пояс: GMT + 2 Години

Нова тема   Відповісти