В обiймах брехнi (Ґрета) / Greta (2018) 1080p H.265 Ukr/Eng | Sub Eng

Нові коментарі

Нова тема   Відповісти
Останній раз роздавалося ivic4u (2020-04-18)
Автор Повідомлення
Anonymous 







2019-06-21 21:51  
В обiймах брехнi (Ґрета) / Greta (2018) 1080p H.265 Ukr/Eng | Sub Eng

В обiймах брехнi (Ґрета) / Greta (2018) 1080p H.265 Ukr/Eng | Sub Eng


Жанр: драма, трилер, детектив
Країна: США, Ірландія
Кінокомпанія: Sidney Kimmel Entertainment, Lawrence Bender Productions, Little Wave Productions
Режисер: Ніл Джордан
Актори: Хлоя Ґрейс Морец, Ізабель Юппер, Майка Монро та інші

Сюжет:
Самотня дівчина, яка нещодавно переїхала на Манхеттен, випадково зустрічається із загадковою вдовою. Між ними зав'язується дружба, і незвичайна знайома оточує юну подругу увагою і турботою. Але незабаром одна з них зрозуміє, що опинилася в обіймах брехні...

Тривалість: 01:38:36
Якість:
Відео:
кодек: H.265 (HEVC)
розмір кадру: 1920 x 800
бітрейт: 6 867 кб/с
бітова глибина: 10 біт
Увага! Перед завантаженням переконайтесь, що ваш пристрій відтворення (та/або ПЗ) підтримує H.265 (HEVC)

Аудіо # 1:
мова: українська
переклад: професійний дубльований
кодек: AC-3 5.1
бітрейт: 384 кб/с

Аудіо # 2:
мова: англійська
переклад: оригінал
кодек: 5.1
бітрейт: 1510 кб/с

Субтитри # 1:
мова: англійська (Full),
тип: програмні (м'які)
формат: *.srt


Info
Код:
General
Unique ID                                : 109264588476965238287505664651505662278 (0x52339822CAEA985344D4DBDA2F537946)
Complete name                            : F:\Video\Greta (2018) 1080p H.265 [UKR_ENG] [Hurtom].
Format                                   :
Format version                           : Version 4 / Version 2
File size                                : 6.04 GiB
Duration                                 : 1 h 38 min
Overall bit rate                         : 8 763 kb/s
Movie name                               : В обiймах брехнi (Ґрета) / Greta (2018)
Encoded date                             : UTC 2019-06-21 10:03:59
Writing application                      : v20.0.0 ('I Am The Sun') 64-bit
Writing library                          : libebml v1.3.5 + v1.4.8
Cover                                    : Yes
Attachments                              : cover.jpg

Video
ID                                       : 1
Format                                   : HEVC
Format/Info                              : High Efficiency Video Coding
Format profile                           : Main [email protected]@High
Codec ID                                 : V_MPEGH/ISO/HEVC
Duration                                 : 1 h 38 min
Bit rate                                 : 6 867 kb/s
Width                                    : 1 920 pixels
Height                                   : 800 pixels
Display aspect ratio                     : 2.40:1
Frame rate mode                          : Constant
Frame rate                               : 23.976 (24000/1001) FPS
Color space                              : YUV
Chroma subsampling                       : 4:2:0
Bit depth                                : 10 bits
Bits/(Pixel*Frame)                       : 0.186
Stream size                              : 4.73 GiB (78%)
Title                                    : В обiймах брехнi (Ґрета) / Greta (2018)
Language                                 : English
Default                                  : Yes
Forced                                   : No
Color range                              : Limited
Color primaries                          : BT.709
Transfer characteristics                 : BT.709
Matrix coefficients                      : BT.709

Audio #1
ID                                       : 2
Format                                   : AC-3
Format/Info                              : Audio Coding 3
Codec ID                                 : A_AC3
Duration                                 : 1 h 38 min
Bit rate mode                            : Constant
Bit rate                                 : 384 kb/s
Channel(s)                               : 6 channels
Channel positions                        : Front: L C R, Side: L R, LFE
Sampling rate                            : 48.0 kHz
Frame rate                               : 31.250 FPS (1536 SPF)
Bit depth                                : 16 bits
Compression mode                         : Lossy
Delay relative to video                  : 1 s 200 ms
Stream size                              : 271 MiB (4%)
Title                                    : ПД - iTunes - 5.1 @ 384 kbps
Language                                 : Ukrainian
Service kind                             : Complete Main
Default                                  : Yes
Forced                                   : Yes

Audio #2
ID                                       : 3
Format                                   :
Format/Info                              : Digital Theater Systems
Codec ID                                 : A_DTS
Duration                                 : 1 h 38 min
Bit rate mode                            : Constant
Bit rate                                 : 1 509 kb/s
Channel(s)                               : 6 channels
Channel positions                        : Front: L C R, Side: L R, LFE
Sampling rate                            : 48.0 kHz
Frame rate                               : 93.750 FPS (512 SPF)
Bit depth                                : 24 bits
Compression mode                         : Lossy
Stream size                              : 1.04 GiB (17%)
Title                                    : Original - 5.1 @ 1 509 kbps
Language                                 : English
Default                                  : No
Forced                                   : No

Text
ID                                       : 4
Format                                   : UTF-8
Codec ID                                 : S_TEXT/UTF8
Codec ID/Info                            : UTF-8 Plain Text
Duration                                 : 1 h 31 min
Bit rate                                 : 40 b/s
Count of elements                        : 1074
Stream size                              : 27.3 KiB (0%)
Title                                    : Full
Language                                 : English
Default                                  : No
Forced                                   : No

Menu
00:00:00.000                             : :Chapter 01
00:05:16.774                             : :Chapter 02
00:10:20.328                             : :Chapter 03
00:13:56.794                             : :Chapter 04
00:18:46.583                             : :Chapter 05
00:23:06.927                             : :Chapter 06
00:28:07.268                             : :Chapter 07
00:31:34.726                             : :Chapter 08
00:36:10.960                             : :Chapter 09
00:43:05.457                             : :Chapter 10
00:46:03.218                             : :Chapter 11
00:50:23.061                             : :Chapter 12
00:55:50.013                             : :Chapter 13
01:02:14.981                             : :Chapter 14
01:07:26.542                             : :Chapter 15
01:12:38.854                             : :Chapter 16
01:16:42.764                             : :Chapter 17
01:23:08.108                             : :Chapter 18
01:27:26.908                             : :Chapter 19
01:34:03.638                             : :Chapter 20
Світлини





Джерело: &
Особиста оцінка: 0 - не дивився


 Трекер:    Зареєстрований   

Завантажити / скачати фільм українською



відео для новачків



 Зареєстрований:   2019-06-21 21:51
 Розмір:   6.04 GB 
 Оцінка фільму:   8/10 (Голосів: 4)
   
Інші релізи
   В обіймах брехні / Greta (2018) AVC Ukr/Eng | Sub Eng 11FrYkT  6 / 0   1.84 GB   2019-05-29 11:08 
   В обiймах брехнi (Ґрета) / Greta (2018) 720p Ukr/Eng | Sub Eng krigg070  0 / 1   4.64 GB   2019-05-28 21:35 
   В обіймах брехні / Greta (2018) Remux 1080p Ukr/Eng | Sub Eng staf777  4 / 0   24.95 GB   2019-05-28 20:40 
   В обіймах брехні / Greta (2018) 1080p Ukr/Eng | Sub Eng staf777  5 / 0   7.07 GB   2019-05-28 17:21 
   В обіймах брехні (Ґрета) / Greta (2018) Electroz  17 / 0   1.46 GB   2019-05-14 15:21 
Ваш часовий пояс: GMT + 2 Години

Нова тема   Відповісти