Анатомія вбивства / Anatomy of a Murder (1959) Remux 1080p 2хUkr/Eng | Sub Eng

Нові коментарі

Нова тема   Відповісти
Останній раз роздавалося MakRA (2020-09-25)
Автор Повідомлення
MakRA 
VIP


З нами з: 11.11.18
Востаннє: 25.09.20
Повідомлень: 1120

2019-06-21 20:49  
Анатомія вбивства / Anatomy of a Murder (1959) Remux 1080p 2хUkr/Eng | Sub Eng

Анатомія вбивства / Anatomy of a Murder (1959) Remux 1080p 2хUkr/Eng | Sub Eng

Альтернативні обкладинки і постери:



Жанр: кримінальний, драма, детектив
Країна: США



Кінокомпанія: Carlyle Productions
Режисер: Отто Премінджер [Otto Preminger]
Актори: Джеймс Стюарт [James Stewart], Лі Ремік [Lee Remick], Бен Ґазара [Ben Gazzara], Артур О'Коннел [Arthur O'Connell], Єва Арден [Eve Arden], Кетрін Ґрант [Kathryn Grant], Джордж Сі. Скот [George C. Scott], Орсон Бін [Orson Bean], Рас Браун [Russ Brown], Мюрей Гамільтон [Murray Hamilton], Дюк Елінґотн [Duke Ellington], Джозеф Н. Велш [Joseph N. Welch].

Сюжет:
Адвокат Пол Біглер (Джеймс Стюарт) за намовою свого колеги Парнела МакКарті (Артур О'Коннел) виступив на захист лейтенанта Фредеріка Меньєна (Бен Газара), який вбив власника місцевого бару.
Причиною злочину стало зґвалтування дружини лейтенанта — привабливої пані Лори Меньєн (Лі Ремік). Захист не визнає лейтенанта винним, стверджуючи, що Фредерік Меньєн був під впливом «нестримного пориву» — психічного стану, у якому він не міг контролювати свої дії.
Чи зможе захист переконати суддю Вівера (Джозеф Н. Велч) та присяжних засідателів?

Цікаве про фільм:

-Джозеф Н. Велч, який грає роль судді Вівера, був дійсно адвокатом у реальному житті. Режисер Отто Премінґер виправдав свій вибір, заявивши: «Велч надав своїй ролі правдивості, якої важко досягти професіоналові».


Нагороди:

1959 рік

Венеційський кінофестиваль

Джеймс Стюарт — за роль адвоката Пола Біглера виграв Кубок Вольпі у номінації найкращий актор

Премія Товариства кінокритиків Нью Йорка:

Джеймс Стюарт — за найкращу чоловічу роль
Вендел Мейс (Wendell Mayes) — за найкращий сценарій

Нагорода Греммі

Дюк Еллінгтон — у жанрі поп-музики за найкраще виконання оркестру для танців (Best Performance By A Dance Band)
Дюк Еллінгтон — за найкращий музичний твір вперше записаний і заграний у 1959 (Best Musical Composition First Recorded And Released In 1959)
Дюк Еллінгтон — за найкращий альбом із записом музики кіно чи телебачення (Best Sound Track Album — Background Score From A Motion Picture Or Television).


Тривалість: 02:40:46
Якість: Remux 1080p [Criterion Collection]
Відео:
кодек:
розмір кадру: 1920 х 1080
бітрейт: 22,9 Mб/с

Аудіо # 1:
мова: українська
переклад: багатоголосий закадровий
кодек: 5.1
бітрейт: 384 кб/с
Про озвучення:
Ролі озвучували:Джеймс Стюарт — Михайло Жонін, Олег Лепенець і Людмила Ардельян.
Аудіо # 2:
мова: українська
переклад: двоголосий закадровий
кодек: 5.1
бітрейт: 384 кб/с
примітка: є місця без перекладу, до них є форсовані субтитри субтитри.
Про озвучення:
Ролі озвучували:Роман Семисал і Олена Яблучна.
Аудіо # 3:
мова: англійська
переклад: оригінал
кодек: -HD MA 5.1
бітрейт: 3560 кб/с

Субтитри# 1: (на місця без перекладу в доріжці №2, ~ 50 фраз)
мова: українська
тип: програмні (м'які)
формат: *.srt

Субтитри # 2: (Full)
мова: англійська
тип: пререндерні
формат: *.pgs
Info
General
Unique ID : 93625953865234309517225228200636123588 (0x466FB3EB7E3206765CBA3CC5026509C4)
Complete name : E:\+Режисер Отто Премінджер\Anatomy of a Murder (1959) Remux 1080p 2хUkrEng Sub Eng [Hurtom].
Format :
Format version : Version 4 / Version 2
File size : 30.7 GiB
Duration : 2 h 40 min
Overall bit rate mode : Variable
Overall bit rate : 27.3 Mb/s
Movie name : Анатомія вбивства / Anatomy of a Murder (1959) Remux 1080p 2хUkr/Eng | Sub Eng [Hurtom]
Encoded date : UTC 2019-06-21 14:33:57
Writing application : v25.0.0 ('Prog Noir') 64-bit
Writing library : libebml v1.3.6 + v1.4.9

Video
ID : 1
Format : AVC
Format/Info : Advanced Video Codec
Format profile : [email protected]
Format settings, CABAC : Yes
Format settings, RefFrames : 4 frames
Codec ID : V_MPEG4/ISO/AVC
Duration : 2 h 40 min
Bit rate mode : Variable
Bit rate : 22.9 Mb/s
Maximum bit rate : 37.0 Mb/s
Width : 1 920 pixels
Height : 1 080 pixels
Display aspect ratio : 16:9
Frame rate mode : Constant
Frame rate : 23.976 (24000/1001) FPS
Color space : YUV
Chroma subsampling : 4:2:0
Bit depth : 8 bits
Scan type : Progressive
Bits/(Pixel*Frame) : 0.461
Stream size : 25.7 GiB (84%)
Title : Anatomy of a Murder (1959) Remux 1080p 2хUkr/Eng | Sub Eng [Hurtom]
Language : Ukrainian
Default : Yes
Forced : Yes

Audio #1
ID : 2
Format : AC-3
Format/Info : Audio Coding 3
Format settings, Endianness : Big
Codec ID : A_AC3
Duration : 2 h 40 min
Bit rate mode : Constant
Bit rate : 384 kb/s
Channel(s) : 6 channels
Channel positions : Front: L C R, Side: L R, LFE
Sampling rate : 48.0 kHz
Frame rate : 31.250 FPS (1536 SPF)
Bit depth : 16 bits
Compression mode : Lossy
Stream size : 442 MiB (1%)
Title : MVO [НОВИЙ] 5.1
Language : Ukrainian
Service kind : Complete Main
Default : Yes
Forced : Yes

Audio #2
ID : 3
Format : AC-3
Format/Info : Audio Coding 3
Format settings, Endianness : Big
Codec ID : A_AC3
Duration : 2 h 40 min
Bit rate mode : Constant
Bit rate : 384 kb/s
Channel(s) : 6 channels
Channel positions : Front: L C R, Side: L R, LFE
Sampling rate : 48.0 kHz
Frame rate : 31.250 FPS (1536 SPF)
Bit depth : 16 bits
Compression mode : Lossy
Stream size : 442 MiB (1%)
Title : DVO [ІНТЕР] 5.1
Language : Ukrainian
Service kind : Complete Main
Default : No
Forced : No

Audio #3
ID : 4
Format :
Format/Info : Digital Theater Systems
Format profile : MA / Core
Mode : 16
Format settings, Endianness : Big
Codec ID : A_DTS
Duration : 2 h 40 min
Bit rate mode : Variable / Constant
Bit rate : 3 560 kb/s / 1 509 kb/s
Channel(s) : 6 channels
Channel positions : Front: L C R, Side: L R, LFE
Sampling rate : 48.0 kHz
Frame rate : 93.750 FPS (512 SPF)
Bit depth : 24 bits
Compression mode : Lossless / Lossy
Stream size : 4.00 GiB (13%)
Title : -HD MA 5.1
Language : English
Default : No
Forced : No

Text #1
ID : 5
Format : UTF-8
Codec ID : S_TEXT/UTF8
Codec ID/Info : UTF-8 Plain Text
Duration : 1 h 15 min
Bit rate : 5 b/s
Count of elements : 50
Stream size : 3.25 KiB (0%)
Title : Ukr (Forced) (на місця без перекладу в доріжці №2, ~ 50 фраз)
Language : Ukrainian
Default : Yes
Forced : Yes

Text #2
ID : 6
Format : PGS
Muxing mode : zlib
Codec ID : S_HDMV/PGS
Codec ID/Info : Picture based subtitle format used on BDs/HD-DVDs
Duration : 2 h 40 min
Bit rate : 76.4 kb/s
Count of elements : 5318
Stream size : 87.4 MiB (0%)
Title : Eng (SDH)
Language : English
Default : No
Forced : No

Menu
00:00:00.000 : en:00:00:00.000
00:10:33.341 : en:00:10:33.341
00:24:05.694 : en:00:24:05.694
00:36:18.802 : en:00:36:18.802
00:42:58.117 : en:00:42:58.117
00:52:25.392 : en:00:52:25.392
00:58:06.024 : en:00:58:06.024
01:06:17.182 : en:01:06:17.182
01:15:34.780 : en:01:15:34.780
01:25:29.541 : en:01:25:29.541
01:39:17.618 : en:01:39:17.618
01:46:35.598 : en:01:46:35.598
01:53:30.387 : en:01:53:30.387
01:59:19.277 : en:01:59:19.277
02:13:13.527 : en:02:13:13.527
02:21:22.599 : en:02:21:22.599
02:28:16.930 : en:02:28:16.930
02:34:03.151 : en:02:34:03.151
Скріншоти
Джерело: &
Висловлюю подяки:
пані olgaya за доріжку з озвучкою Інтера
пану w2958l за надану доріжку Нового каналу і переклад субтитрів
а також панам robotron005 і rooster за синхронізацію.
Особиста оцінка: 10 - без зайвих вагань рекомендую всім!


Золотий реліз (завантажене не впливає на рейтинг)
 Трекер:    Зареєстрований   

Завантажити / скачати фільм українською



відео для новачків



 Зареєстрований:   2019-06-21 20:49
 Розмір:   30.65 GB 
 Оцінка фільму:   10/10 (Голосів: 7)
   
Ваш часовий пояс: GMT + 2 Години

Нова тема   Відповісти