Англійський пацієнт / The English Patient (1996) 1080p Ukr/Eng | Sub Ukr/Eng

Нові коментарі

Нова тема   Відповісти
Автор Повідомлення
Anonymous 







2019-06-20 19:48  
Англійський пацієнт / The English Patient (1996) 1080p Ukr/Eng | Sub Ukr/Eng

Англійський пацієнт / The English Patient (1996) 1080p Ukr/Eng | Sub Ukr/Eng


Жанр: драма, романтичний, військовий
Країна: США, Велика Британія



Кінокомпанія: Miramax Films, Tiger Moth Productions
Режисер: Ентоні Мінґелла
Актори: Ральф Файнс, Крістін Скотт Томас, Жюльєт Бінош, Віллем Дефо, Невін Ендрюс, Колін Ферт, Джуліан Ведем, Юрґен Прохнов, Кевін Вотлі, Клайв Меррісон

Сюжет:
Екранізація бестселера Майкла Ондаатдьє. Кінець Другої світової війни, британський літак, збитий німецькими військами, падає у Сахарі. Пілот, який отримав численні опіки, потрапляє у госпіталь у мальовничому сільському куточку Італії, де його записують як "англійського пацієнта". Медсестра Ганна зупиняється у залишеному біженцями монастирі доглядати за тяжко пораненим льотчиком. Ганна виходжує обпаленого пацієнта, який втратив пам'ять, і повертає йому історію його пристрасної і трагічної любові до Кетрін Кліфтон.


Тривалість: 02:41:44
Якість: 1080p
Відео:
кодек:
розмір кадру: 1920x1040
бітрейт: 8930 кб/с

Аудіо # 1:
мова: українська
переклад: багатоголосий закадровий ,
кодек: 2.0
бітрейт: 192 кб/с

Аудіо # 2:
мова: англійська
переклад: оригінал
кодек: 5.1
бітрейт: 640 кб/с

Субтитри:
мова: українська
тип: програмні (м'які)
формат: *.srt

Субтитри:
мова: англійська
тип: програмні (м'які)
формат: *.srt
Info
General
Unique ID : 246499508579962777271222970839596076626 (0xB97214179949E93FA46185F7B9E10E52)
Format :
Format version : Version 4
File size : 11.0 GiB
Duration : 2 h 41 min
Overall bit rate : 9 760 kb/s
Encoded date : UTC 2019-06-20 16:33:49
Writing application : v6.1.0 ('Old Devil') built on Mar 4 2013 09:10:42
Writing library : libebml v1.3.0 + v1.4.0

Video
ID : 1
Format : AVC
Format/Info : Advanced Video Codec
Format profile : [email protected]
Format settings : CABAC / 4 Ref Frames
Format settings, CABAC : Yes
Format settings, RefFrames : 4 frames
Codec ID : V_MPEG4/ISO/AVC
Duration : 2 h 41 min
Bit rate : 8 930 kb/s
Width : 1 920 pixels
Height : 1 040 pixels
Display aspect ratio : 1.85:1
Frame rate mode : Constant
Frame rate : 23.976 (24000/1001) FPS
Color space : YUV
Chroma subsampling : 4:2:0
Bit depth : 8 bits
Scan type : Progressive
Bits/(Pixel*Frame) : 0.187
Stream size : 9.88 GiB (89%)
Writing library : core 138 r2358 9e941d1
Encoding settings : cabac=1 / ref=4 / deblock=1:-3:-3 / analyse=0x3:0x133 / me=umh / subme=11 / psy=1 / psy_rd=1.00:0.10 / mixed_ref=1 / me_range=32 / chroma_me=1 / trellis=2 / 8x8dct=1 / cqm=0 / deadzone=21,11 / fast_pskip=0 / chroma_qp_offset=-3 / threads=6 / lookahead_threads=1 / sliced_threads=0 / nr=0 / decimate=1 / interlaced=0 / bluray_compat=0 / constrained_intra=0 / bframes=7 / b_pyramid=2 / b_adapt=2 / b_bias=0 / direct=3 / weightb=1 / open_gop=0 / weightp=2 / keyint=240 / keyint_min=23 / scenecut=40 / intra_refresh=0 / rc=2pass / mbtree=0 / bitrate=8930 / ratetol=1.0 / qcomp=0.60 / qpmin=0 / qpmax=69 / qpstep=4 / cplxblur=20.0 / qblur=0.5 / ip_ratio=1.40 / pb_ratio=1.30 / aq=1:0.90
Language : English
Default : Yes
Forced : No

Audio #1
ID : 2
Format : AC-3
Format/Info : Audio Coding 3
Commercial name : Dolby Digital
Codec ID : A_AC3
Duration : 2 h 41 min
Bit rate mode : Constant
Bit rate : 192 kb/s
Channel(s) : 2 channels
Channel layout : L R
Sampling rate : 48.0 kHz
Frame rate : 31.250 FPS (1536 SPF)
Bit depth : 16 bits
Compression mode : Lossy
Stream size : 222 MiB (2%)
Title : UKR (Inter, AMC)
Language : Ukrainian
Service kind : Complete Main
Default : Yes
Forced : Yes

Audio #2
ID : 3
Format : AC-3
Format/Info : Audio Coding 3
Commercial name : Dolby Digital
Codec ID : A_AC3
Duration : 2 h 41 min
Bit rate mode : Constant
Bit rate : 640 kb/s
Channel(s) : 6 channels
Channel layout : L R C LFE Ls Rs
Sampling rate : 48.0 kHz
Frame rate : 31.250 FPS (1536 SPF)
Bit depth : 16 bits
Compression mode : Lossy
Stream size : 741 MiB (7%)
Title : ENG
Language : English
Service kind : Complete Main
Default : No
Forced : No

Text #1
ID : 4
Format : UTF-8
Codec ID : S_TEXT/UTF8
Codec ID/Info : UTF-8 Plain Text
Title : UKR
Language : Ukrainian
Default : Yes
Forced : No

Text #2
ID : 5
Format : UTF-8
Codec ID : S_TEXT/UTF8
Codec ID/Info : UTF-8 Plain Text
Title : ENG
Language : English
Default : No
Forced : No

Menu
00:00:00.000 : en:00:00:00.000
00:14:11.350 : en:00:14:11.350
00:27:29.231 : en:00:27:29.231
00:39:47.385 : en:00:39:47.385
00:53:24.827 : en:00:53:24.827
01:07:52.568 : en:01:07:52.568
01:21:32.304 : en:01:21:32.304
01:34:37.881 : en:01:34:37.881
01:48:54.153 : en:01:48:54.153
02:00:28.263 : en:02:00:28.263
02:15:20.362 : en:02:15:20.362
02:29:15.446 : en:02:29:15.446
Скріншоти







За українську доріжку подяка п.: MAKAPOHHIK, Gelios
За український постер подяка п. Gelios
За українські субтитри подяка п.: Ярослав Доценко, yuranako
Особиста подяка пану denixx за надану матеріальну допомогу на підтримку цього і майбутніх релізів.
Джерело:


Срібний реліз (на рейтинг впливає 50% завантаженого)
 Трекер:    Зареєстрований   

Завантажити / скачати фільм українською



відео для новачків



 Зареєстрований:   2019-06-20 19:48
 Розмір:   11.04 GB 
 Оцінка фільму:   9.2/10 (Голосів: 13)
   
Ваш часовий пояс: GMT + 2 Години

Нова тема   Відповісти